Comedy

The Bank Dick big dad e mp4

  • Download 5x Faster
  • Download torrent
  • Direct Download
  • Rate this torrent +  |  -
The Bank Dick big dad e mp4

Download FREE And Anonymously


Torrent info

Name:The Bank Dick big dad e mp4

Total Size: 586.87 MB

Magnet: Magnet Link

Seeds: 0

Leechers: 0

Stream: Watch Full Movie @ Movie4u

Last Updated: 2016-09-29 07:35:59 (Update Now)

Torrent added: 2009-09-18 01:35:44



VPN For Torrents

Torrent Files List


The Bank Dick_big_dad_e.mp4 (Size: 586.87 MB) (Files: 1)

 The Bank Dick_big_dad_e.mp4

586.87 MB
 

tracker

leech seeds
 

Torrent description

Director: Edward F. Kline (780x420 resolution)

Egbert Souse, "accent grave over the e", henpecked by his whole family, is recruited to replace a drunken film director, then seems to have captured a bank robber and is hired as guard in the Lompoc Bank, where Og Oggilby, his daughter's fiancée, is teller. Souse persuades Og to embezzle $500 to buy phony stock; then the bank examiner shows up. Can Souse keep him occupied for four days? The climax is an extended chase sequence. Written by Rod Crawford {[email protected]}


W.C. Fields ... Egbert Sousè
Cora Witherspoon ... Agatha Sousè
Una Merkel ... Myrtle Sousè
Evelyn Del Rio ... Elsie Mae Adele Brunch Sousè
Jessie Ralph ... Mrs. Hermisillo Brunch
Franklin Pangborn ... J. Pinkerton Snoopington
Shemp Howard ... Joe Guelpe, Bartender
Dick Purcell ... Mackley Q. Greene, Movie Location Scout (as Richard Purcell)
Grady Sutton ... Og Oggilby
Russell Hicks ... J. Frothingham Waterbury
Pierre Watkin ... Mr. Skinner, Bank President
Al Hill ... Filthy McNasty
George Moran ... Cozy Cochran
Bill Wolfe ... Otis
Jack Norton ... A. Pismo Clam, Movie Director

File Confirmation:
Format : MPEG-4
Format profile : Base Media
Codec ID : isom
File size : 587 MiB
Duration : 1h 12mn
Overall bit rate : 1 139 Kbps
Movie name : The Bank Dick
Encoded date : UTC 2009-06-11 18:12:13
Tagged date : UTC 2009-06-11 18:12:13
Comment : QuickTime 6.0 or greater

Video
ID : 1
Format : MPEG-4 Visual
Format profile : [email protected]
Format settings, BVOP : No
Format settings, QPel : No
Format settings, GMC : No warppoints
Format settings, Matrix : Default (H.263)
Codec ID : 20
Duration : 1h 12mn
Bit rate mode : Constant
Bit rate : 1 022 Kbps
Nominal bit rate : 768 Kbps
Width : 320 pixels
Height : 240 pixels
Display aspect ratio : 4/3
Frame rate mode : Constant
Frame rate : 29.970 fps
Resolution : 24 bits
Colorimetry : 4:2:0
Scan type : Progressive
Bits/(Pixel*Frame) : 0.444
Stream size : 527 MiB (90%)
Writing library : XviD 1.1.0 (UTC 2005-11-22)
Encoded date : UTC 2009-06-11 18:12:13
Tagged date : UTC 2009-06-11 18:12:13

Audio
ID : 2
Format : AAC
Format/Info : Advanced Audio Codec
Format version : Version 4
Format profile : LC
Format settings, SBR : No
Codec ID : 40
Duration : 1h 12mn
Bit rate mode : Constant
Bit rate : 112 Kbps
Channel(s) : 2 channels
Channel positions : L R
Sampling rate : 48.0 KHz
Resolution : 16 bits
Stream size : 57.7 MiB (10%)
Encoded date : UTC 2009-06-11 18:12:13
Tagged date : UTC 2009-06-11 18:12:13
Quicktime for iPod
AL:WAYS SEED!

related torrents

Torrent name

health leech seeds Size

W C Fields - The Bank Dick

8 4 700.29 MB 0
 


comments (0)

Main Menu

 

script data-cfasync="false" src="//d2ghscazvn398x.cloudfront.net/?cshgd=690275">