Thriller

Oldboy [2003] AKHiUgO [H33T] (Eng Subs)

  • Download 5x Faster
  • Download torrent
  • Direct Download
  • Rate this torrent +  |  -
Oldboy [2003] AKHiUgO [H33T] (Eng Subs)

Anonymous and Free Direct Download


Torrent info

Name:Oldboy [2003] AKHiUgO [H33T] (Eng Subs)

Total Size: 1.37 GB

Magnet: Magnet Link

Seeds: 10

Leechers: 1

Stream: Watch Online @ Movie4u

Last Updated: 0000-00-00 00:00:00 (Update Now)

Torrent added: 2009-09-17 20:33:36



VPN For Torrents

Torrent Files List


Oldboy [2003]-AKHiUgO [H33T].avi (Size: 1.37 GB) (Files: 2)

 Oldboy [2003]-AKHiUgO [H33T].avi

1.37 GB

 tracked_by_h33t_com.txt

0.02 KB
 

Announce URL: http://www.h33t.com:3310/announce

Torrent description

Oldboy [2003]-AKHiUgO

Language : Korean
Subtitles: English (Hardcoded)

Cover

An average man is kidnapped and imprisoned in a shabby cell for 15 years without explanation. He then is released, equipped with money, a cellphone and expensive clothes. As he strives to explain his imprisonment and get his revenge, he soon finds out that not only his kidnapper has still plans for him, but that those plans will serve as the even worse finale to 15 years of imprisonment.

Screen1
Screen2
Screen3


General
Format : AVI
File size : 1.37 GiB
Duration : 1h 55mn
Overall bit rate : 1 701 Kbps

Video
Format : MPEG-4 Visual
Codec ID : XVID
Duration : 1h 55mn
Bit rate : 1 551 Kbps
Width : 720 pixels
Height : 320 pixels
Display aspect ratio : 2.25
Frame rate : 25.000 fps
Resolution : 24 bits
Colorimetry : 4:2:0
Scan type : Progressive
Bits/(Pixel*Frame) : 0.269
Stream size : 1.25 GiB (91%)

Audio
Format : MP3
Duration : 1h 55mn
Bit rate mode : Variable
Bit rate : 137 Kbps
Minimum bit rate : 160 Kbps
Channel(s) : 2 channels
Sampling rate : 48.0 KHz
Resolution : 16 bits
Stream size : 113 MiB (8%)
Writing library : LAME3.98r
Encoding settings : ABR

PLEASE HELP YOUR FELLOW PIRATES BY SEEDING AFTER DOWNLOAD!

related torrents

Torrent name

health leech seeds Size
 


comments (0)

Main Menu