Sci-Fi

Doom [2005] 1280x544 HD Mp4 H264 AAC 5 1 ch 3Li

  • Download 5x Faster
  • Download torrent
  • Direct Download
  • Rate this torrent +  |  -
Doom [2005] 1280x544 HD Mp4 H264 AAC 5 1 ch 3Li

Anonymous and Direct Download 300GB+ free


Torrent info

Name:Doom [2005] 1280x544 HD Mp4 H264 AAC 5 1 ch 3Li

Total Size: 1.43 GB

Magnet: Magnet Link

Seeds: 0

Leechers: 0

Stream: Watch Online @ Movie4u

Last Updated: 2014-01-31 06:34:57 (Update Now)

Torrent added: 2009-09-17 17:37:03




Torrent Files List


Doom.mp4 (Size: 1.43 GB) (Files: 15)

 Doom.mp4

1.43 GB

 snapshot20090917234308.jpg

129.74 KB

 snapshot20090917234418.jpg

77.99 KB

 snapshot20090917235317.jpg

75.65 KB

 Doom.srt

66.16 KB

 snapshot20090917235044.jpg

64.27 KB

 snapshot20090917234855.jpg

61.56 KB

 snapshot20090917234820.jpg

61.51 KB

 snapshot20090917234535.jpg

60.52 KB

 snapshot20090917234705.jpg

58.99 KB

 snapshot20090917234356.jpg

58.88 KB

 snapshot20090917235703.jpg

47.16 KB

 Doom.mp4.txt

4.97 KB

 Torrent downloaded from Demonoid.com.txt

0.05 KB

 tracked_by_h33t_com.txt

0.02 KB
 

Announce URL:

Torrent description

General
Complete name : Doom.mp4
Format : MPEG-4
Format profile : Base Media
Codec ID : isom
File size : 1.43 GiB
Duration : 1h 52mn
Overall bit rate : 1 815 Kbps
Encoded date : UTC 2009-09-16 10:22:38
Tagged date : UTC 2009-09-16 10:22:38

Video
ID : 1
Format : AVC
Format/Info : Advanced Video Codec
Format profile : [email protected]
Format settings, CABAC : Yes
Format settings, ReFrames : 4 frames
Codec ID : avc1
Codec ID/Info : Advanced Video Coding
Duration : 1h 52mn
Bit rate mode : Variable
Bit rate : 1 613 Kbps
Nominal bit rate : 1 634 Kbps
Maximum bit rate : 7 897 Kbps
Width : 1 280 pixels
Height : 544 pixels
Display aspect ratio : 2.35:1
Frame rate mode : Constant
Frame rate : 23.976 fps
Resolution : 24 bits
Colorimetry : 4:2:0
Scan type : Progressive
Bits/(Pixel*Frame) : 0.097
Stream size : 1.27 GiB (89%)
Title : Doom By 3Li
Writing library : x264 core 68

Audio
ID : 2
Format : AAC
Format/Info : Advanced Audio Codec
Format version : Version 4
Format profile : LC
Format settings, SBR : No
Codec ID : 40
Duration : 1h 52mn
Bit rate mode : Variable
Bit rate : 198 Kbps
Maximum bit rate : 274 Kbps
Channel(s) : 6 channels
Channel positions : Front: L C R, Rear: L R, LFE
Sampling rate : 48.0 KHz
Resolution : 16 bits
Stream size : 160 MiB (11%)
Title : Doom
Language : English
Encoded date : UTC 2009-09-16 10:23:20
Tagged date : UTC 2009-09-16 10:23:34

related torrents

Torrent name

health leech seeds Size
 


comments (0)

Main Menu