Action

The Marine [2006] 1280x688 HD Mp4 H264 AAC 5 1 ch 3Li

  • Download 5x Faster
  • Download torrent
  • Direct Download
  • Rate this torrent +  |  -
The Marine [2006] 1280x688 HD Mp4 H264 AAC 5 1 ch 3Li

Anonymous and Direct Download 300GB+ free


Torrent info

Name:The Marine [2006] 1280x688 HD Mp4 H264 AAC 5 1 ch 3Li

Total Size: 1.45 GB

Magnet: Magnet Link

Seeds: 0

Leechers: 1

Stream: Watch Online @ Movie4u

Last Updated: 2015-07-18 18:59:29 (Update Now)

Torrent added: 2009-09-17 13:41:20




Torrent Files List


The Marine.mp4 (Size: 1.45 GB) (Files: 19)

 The Marine.mp4

1.45 GB

 snapshot20090916221709.jpg

201.25 KB

 snapshot20090916221839.jpg

194.54 KB

 snapshot20090916220912.jpg

164.43 KB

 snapshot20090916033123.jpg

161.09 KB

 snapshot20090916221921.jpg

120.69 KB

 snapshot20090916221748.jpg

118.57 KB

 snapshot20090916221026.jpg

116.49 KB

 snapshot20090916222036.jpg

115.72 KB

 snapshot20090916222056.jpg

114.40 KB

 snapshot20090916221047.jpg

103.77 KB

 snapshot20090916220600.jpg

102.93 KB

 snapshot20090916170628.jpg

96.07 KB

 snapshot20090916222045.jpg

94.83 KB

 snapshot20090916222643.jpg

94.62 KB

 snapshot20090916220545.jpg

77.24 KB

 The Marine.mp4.txt

4.91 KB

 Torrent downloaded from Demonoid.com.txt

0.05 KB

 tracked_by_h33t_com.txt

0.02 KB
 

tracker

leech seeds
 

Torrent description

General
Complete name : The Marine.mp4
Format : MPEG-4
Format profile : Base Media
Codec ID : isom
File size : 1.45 GiB
Duration : 1h 31mn
Overall bit rate : 2 266 Kbps
Encoded date : UTC 2009-09-14 23:59:40
Tagged date : UTC 2009-09-14 23:59:40

Video
ID : 1
Format : AVC
Format/Info : Advanced Video Codec
Format profile : [email protected]
Format settings, CABAC : Yes
Format settings, ReFrames : 4 frames
Codec ID : avc1
Codec ID/Info : Advanced Video Coding
Duration : 1h 31mn
Bit rate mode : Variable
Bit rate : 2 054 Kbps
Maximum bit rate : 6 692 Kbps
Width : 1 280 pixels
Height : 688 pixels
Display aspect ratio : 1.860
Frame rate mode : Constant
Frame rate : 23.976 fps
Resolution : 24 bits
Colorimetry : 4:2:0
Scan type : Progressive
Bits/(Pixel*Frame) : 0.097
Stream size : 1.32 GiB (91%)
Title : The Marine By 3Li
Writing library : x264 core 68

Audio
ID : 2
Format : AAC
Format/Info : Advanced Audio Codec
Format version : Version 4
Format profile : LC
Format settings, SBR : No
Codec ID : 40
Duration : 1h 31mn
Bit rate mode : Variable
Bit rate : 209 Kbps
Maximum bit rate : 250 Kbps
Channel(s) : 6 channels
Channel positions : Front: L C R, Rear: L R, LFE
Sampling rate : 48.0 KHz
Resolution : 16 bits
Stream size : 137 MiB (9%)
Title : The Marine
Language : English
Encoded date : UTC 2009-09-15 00:01:26
Tagged date : UTC 2009-09-15 00:01:32

related torrents

Torrent name

health leech seeds Size
 


comments (0)

Main Menu