Sci-Fi

Planet Of The Apes [2001] 1280x544 HD Mp4 H264 AAC 5 1 ch 3Li

  • Download 5x Faster
  • Download torrent
  • Direct Download
  • Rate this torrent +  |  -
Planet Of The Apes [2001] 1280x544 HD Mp4 H264 AAC 5 1 ch 3Li

Anonymous and Direct Download 300GB+ free


Torrent info

Name:Planet Of The Apes [2001] 1280x544 HD Mp4 H264 AAC 5 1 ch 3Li

Total Size: 1.45 GB

Magnet: Magnet Link

Seeds: 0

Leechers: 0

Stream: Watch Online @ Movie4u

Last Updated: 2015-09-04 00:55:50 (Update Now)

Torrent added: 2009-09-17 13:41:14




Torrent Files List


Planet Of The Apes.mp4 (Size: 1.45 GB) (Files: 15)

 Planet Of The Apes.mp4

1.45 GB

 snapshot20090917075106.jpg

109.23 KB

 snapshot20090917074557.jpg

98.10 KB

 snapshot20090917074656.jpg

93.99 KB

 snapshot20090917074840.jpg

88.41 KB

 snapshot20090917075532.jpg

88.20 KB

 snapshot20090917074709.jpg

87.54 KB

 snapshot20090917075303.jpg

86.30 KB

 snapshot20090917075216.jpg

84.96 KB

 snapshot20090917074852.jpg

62.17 KB

 snapshot20090917074825.jpg

61.06 KB

 snapshot20090917074900.jpg

44.14 KB

 Planet Of The Apes.mp4.txt

5.05 KB

 Torrent downloaded from Demonoid.com.txt

0.05 KB

 tracked_by_h33t_com.txt

0.02 KB
 

tracker

leech seeds
 

Torrent description

General
Complete name : Planet Of The Apes.mp4
Format : MPEG-4
Format profile : Base Media
Codec ID : isom
File size : 1.45 GiB
Duration : 1h 59mn
Overall bit rate : 1 727 Kbps
Encoded date : UTC 2009-09-16 03:56:51
Tagged date : UTC 2009-09-16 03:56:51

Video
ID : 1
Format : AVC
Format/Info : Advanced Video Codec
Format profile : [email protected]
Format settings, CABAC : Yes
Format settings, ReFrames : 4 frames
Codec ID : avc1
Codec ID/Info : Advanced Video Coding
Duration : 1h 59mn
Bit rate mode : Variable
Bit rate : 1 509 Kbps
Nominal bit rate : 1 524 Kbps
Maximum bit rate : 8 154 Kbps
Width : 1 280 pixels
Height : 544 pixels
Display aspect ratio : 2.35:1
Frame rate mode : Constant
Frame rate : 23.976 fps
Resolution : 24 bits
Colorimetry : 4:2:0
Scan type : Progressive
Bits/(Pixel*Frame) : 0.090
Stream size : 1.26 GiB (87%)
Title : Planet Of The Apes By 3Li
Writing library : x264 core 68

Audio
ID : 2
Format : AAC
Format/Info : Advanced Audio Codec
Format version : Version 4
Format profile : LC
Format settings, SBR : No
Codec ID : 40
Duration : 1h 59mn
Bit rate mode : Variable
Bit rate : 214 Kbps
Maximum bit rate : 289 Kbps
Channel(s) : 6 channels
Channel positions : Front: L C R, Rear: L R, LFE
Sampling rate : 48.0 KHz
Resolution : 16 bits
Stream size : 184 MiB (12%)
Title : Planet Of The Apes
Language : English
Encoded date : UTC 2009-09-16 03:57:21
Tagged date : UTC 2009-09-16 03:57:34

related torrents

Torrent name

health leech seeds Size
 


comments (0)

Main Menu