Sci-Fi

The Golden Compass [2007] 1280x544 HD Mp4 H264 AAC 5 1 ch 3Li

  • Download 5x Faster
  • Download torrent
  • Direct Download
  • Rate this torrent +  |  -
The Golden Compass [2007] 1280x544 HD Mp4 H264 AAC 5 1 ch 3Li

Free and Direct Download with Usenet.nl 300GB+ free


Torrent info

Name:The Golden Compass [2007] 1280x544 HD Mp4 H264 AAC 5 1 ch 3Li

Total Size: 1.43 GB

Magnet: Magnet Link

Seeds: 0

Leechers: 0

Stream: Watch Online @ Movie4u

Last Updated: 2015-09-26 09:01:49 (Update Now)

Torrent added: 2009-09-17 13:40:48





Torrent Files List


The Golden Compass.mp4 (Size: 1.43 GB) (Files: 14)

 The Golden Compass.mp4

1.43 GB

 snapshot20090917200039.jpg

95.30 KB

 snapshot20090917200453.jpg

93.27 KB

 snapshot20090917195843.jpg

91.78 KB

 snapshot20090917195858.jpg

87.26 KB

 snapshot20090917200233.jpg

84.48 KB

 snapshot20090917195944.jpg

76.37 KB

 snapshot20090917200257.jpg

74.65 KB

 snapshot20090917192337.jpg

72.38 KB

 snapshot20090917200106.jpg

70.22 KB

 snapshot20090917200817.jpg

54.89 KB

 The Golden Compass.mp4.txt

5.05 KB

 Torrent downloaded from Demonoid.com.txt

0.05 KB

 tracked_by_h33t_com.txt

0.02 KB
 

tracker

leech seeds
 

Torrent description

General
Complete name : The Golden Compass.mp4
Format : MPEG-4
Format profile : Base Media
Codec ID : isom
File size : 1.43 GiB
Duration : 1h 53mn
Overall bit rate : 1 801 Kbps
Encoded date : UTC 2009-09-16 16:12:54
Tagged date : UTC 2009-09-16 16:12:54

Video
ID : 1
Format : AVC
Format/Info : Advanced Video Codec
Format profile : [email protected]
Format settings, CABAC : Yes
Format settings, ReFrames : 4 frames
Codec ID : avc1
Codec ID/Info : Advanced Video Coding
Duration : 1h 53mn
Bit rate mode : Variable
Bit rate : 1 598 Kbps
Nominal bit rate : 1 625 Kbps
Maximum bit rate : 10.3 Mbps
Width : 1 280 pixels
Height : 544 pixels
Display aspect ratio : 2.35:1
Frame rate mode : Constant
Frame rate : 23.976 fps
Resolution : 24 bits
Colorimetry : 4:2:0
Scan type : Progressive
Bits/(Pixel*Frame) : 0.096
Stream size : 1.26 GiB (89%)
Title : The Golden Compass By 3Li
Writing library : x264 core 68

Audio
ID : 2
Format : AAC
Format/Info : Advanced Audio Codec
Format version : Version 4
Format profile : LC
Format settings, SBR : No
Codec ID : 40
Duration : 1h 53mn
Bit rate mode : Variable
Bit rate : 200 Kbps
Maximum bit rate : 268 Kbps
Channel(s) : 6 channels
Channel positions : Front: L C R, Rear: L R, LFE
Sampling rate : 48.0 KHz
Resolution : 16 bits
Stream size : 162 MiB (11%)
Title : The Golden Compass
Language : English
Encoded date : UTC 2009-09-16 16:13:42
Tagged date : UTC 2009-09-16 16:13:55

related torrents

Torrent name

health leech seeds Size
 

comments (0)

Main Menu