Comedy

To Wong Foo (1995) Patrick Swayze Wesley Snipes(Opt MULTISUBS)_Kuth

  • Download 5x Faster
  • Download torrent
  • Direct Download
  • Rate this torrent +  |  -
To Wong Foo (1995) Patrick Swayze Wesley Snipes(Opt MULTISUBS)_Kuth

Free and Direct Download with Usenet 300GB+ free


Torrent info

Name:To Wong Foo (1995) Patrick Swayze Wesley Snipes(Opt MULTISUBS)_Kuth

Total Size: 703.37 MB

Magnet: Magnet Link

Seeds: 0

Leechers: 0

Stream: Watch Online @ Movie4u

Last Updated: 0000-00-00 00:00:00 (Update Now)

Torrent added: 2009-09-17 12:36:26




Torrent Files List


Info about this release.txt (Size: 703.37 MB) (Files: 14)

 Info about this release.txt

5.08 KB

 Optional subtitles

  Dansk.rar

915.40 KB

  English.rar

1.12 MB

  Estonian.rar

965.28 KB

  Islenska.rar

986.24 KB

  Latvian.rar

888.25 KB

  Lithuanian.rar

949.81 KB

  Nederlands.rar

781.54 KB

  Norsk.rar

862.24 KB

  Notes on subtitle files and burning of discs.txt

2.20 KB

  Russkij.rar

999.80 KB

  Suomiseksi.rar

852.62 KB

  Svenska.rar

918.04 KB

 To Wong Foo (1995) Wesley Snipes+Patrick Swayze(Opt.MULTISUBS)_Kuth.avi

693.34 MB
 

Announce URL:

Torrent description

Full title:
To Wong Foo Thanks for Everything, Julie Newmar (1995) (Gay interest)

http://www.imdb.com/title/tt0114682/

Optional subtitles in separate idx/sub files:
Danish, Dutch, English, Estonian, Finnish, Icelandic, Latvian, Lithuanian, Norwegian, Russian, Swedish.

"I didn't know John Leguizamo ("Chi-Chi Rodriguez") was a man in this flick"
(Imdb Message Board)

With Stockard Channing, Chris Penn and Jason London.

Wesley Snipes, Patrick Swayze and John Leguizamo as drag queens!
This hilarious comedy may be seen as the American counterpart to Australia's 'Priscilla, queen of the desert (1994)', but the story is quite different. And this film proves that the part as a drag queen brings out the skilled actor in anyone, even in our most hard-core action heroes.

From Imdb "Trivia":
Before filming the scene in which Sheriff Dollard (played by Chris Penn) pulls the car over at the roadside, Patrick Swayze secretly placed a corn cob down the front of his underwear. Penn's expression of shock upon putting his hand up Swayze's dress is not faked.

Widescreen DVDrip XviD 2-pass 720x368, really great stereo sound AC3.
Burn tested, runs well in both my standalone DivX players.


MediaInfo analysis:
Format/Info : Audio Video Interleave
File size : 693 MiB
Duration : 1h 43mn
Overal bit rate : 935 Kbps

Video
Format : MPEG-4 Visual
Format profile : Streaming [email protected]
Format settings, BVOP : Yes
Format settings, QPel : No
Format settings, GMC : No warppoints
Format settings, Matrix : Default
Muxing mode : Packet Bitstream
Codec ID : XVID
Codec ID/Hint : XviD
Duration : 1h 43mn
Bit rate : 797 Kbps
Width : 720 pixels
Height : 368 pixels
Display aspect ratio : 1.957
Frame rate : 25.000 fps
Resolution : 8 bits
Colorimetry : 4:2:0
Scan type : Progressive
Bits/(Pixel*Frame) : 0.120
Stream size : 591 MiB
Writing library : XviD 1.2.0.dev47 (UTC 2006-11-01)

Audio
Format : MPEG Audio
Format version : Version 1
Format profile : Layer 3
Codec ID : 55
Codec ID/Hint : MP3
Duration : 1h 43mn
Bit rate mode : Constant
Bit rate : 128 Kbps
Minimum bit rate : 128 Kbps
Channel(s) : 2 channels
Sampling rate : 48.0 KHz
Resolution : 16 bits
Stream size : 94.9 MiB
Writing library : LAME3.97
Encoding settings : CBR

Source: PAL rental 6.33 GiB (note that PAL/NTSC will give no problems for avi files).

Have a look at my other torrents with optional multisubs at http://thepiratebay.org/user/Kuthumi/

related torrents

Torrent name

health leech seeds Size
 

comments (0)

Main Menu