Jazz

Haden Quartet West In Angel City Flac

  • Download 5x Faster
  • Download torrent
  • Direct Download
  • Rate this torrent +  |  -
Haden Quartet West In Angel City Flac

Download FREE And Anonymously


Torrent info

Name:Haden Quartet West In Angel City Flac

Total Size: 352.53 MB

Magnet: Magnet Link

Seeds: 2

Leechers: 3

Stream: Watch Full Movie @ Movie4u

Last Updated: 2011-01-01 12:26:30 (Update Now)

Torrent added: 2008-08-26 15:58:44



VPN For Torrents

Torrent Files List


alanbroadbent.jpg (Size: 352.53 MB) (Files: 9)

 alanbroadbent.jpg

8.42 KB

 Charlie Haden & Quartet West - In Angel City.cue

1.54 KB

 Charlie Haden & Quartet West - In Angel City.flac

352.45 MB

 copertina.jpg

28.54 KB

 cover b.jpg

22.94 KB

 haden_charlie021103.jpg

9.50 KB

 log.log

2.80 KB

 Torrent downloaded from Demonoid.com.txt

0.05 KB

 watts.jpg

14.23 KB
 

Announce URL: http://inferno.demonoid.com:3393/announce

Torrent description

Haden Quartet West   In Angel City   Flac preview 0

Exact Audio Copy V0.99 prebeta 3 from 28. July 2007

EAC extraction logfile from 30. March 2008, 21:21

Charlie Haden & Quartet West / In Angel City

Used drive : HL-DT-STDVDRRW GSA-H20L Adapter: 5 ID: 0

Read mode : Secure
Utilize accurate stream : Yes
Defeat audio cache : Yes
Make use of C2 pointers : No

Read offset correction : 102
Overread into Lead-In and Lead-Out : No
Fill up missing offset samples with silence : Yes
Delete leading and trailing silent blocks : No
Null samples used in CRC calculations : Yes
Used interface : Installed external ASPI interface

Used output format : User Defined Encoder
Selected bitrate : 1024 kBit/s
Quality : High
Add ID3 tag : No
Command line compressor : C:\Programmi\Exact Audio Copy\FLAC\FLAC.EXE
Additional command line options : -8 -V -T "ARTIST=%a" -T "TITLE=%t" -T "ALBUM=%g" -T "DATE=%y" -T "TRACKNUMBER=%n" -T "GENRE=%m" -T "COMMENT=%e" %s -o %d


TOC of the extracted CD

Track | Start | Length | Start sector | End sector
---------------------------------------------------------
1 | 0:00.33 | 6:24.62 | 33 | 28894
2 | 6:25.20 | 7:00.50 | 28895 | 60444
3 | 13:25.70 | 4:59.25 | 60445 | 82894
4 | 18:25.20 | 7:21.00 | 82895 | 115969
5 | 25:46.20 | 6:30.30 | 115970 | 145249
6 | 32:16.50 | 6:33.70 | 145250 | 174794
7 | 38:50.45 | 3:09.00 | 174795 | 188969
8 | 41:59.45 | 8:13.13 | 188970 | 225957
9 | 50:12.58 | 3:18.50 | 225958 | 240857
10 | 53:31.33 | 13:41.62 | 240858 | 302494


Range status and errors

Selected range

Filename C:\Documents and Settings\HP_Proprietario\Documenti\Utorrent Downloads\Nuova cartella\Charlie Haden & Quartet West - In Angel City.wav

Peak level 80.8 %
Range quality 99.9 %
Test CRC 0BBE668F
Copy CRC 0BBE668F
Copy OK

No errors occurred


AccurateRip summary

Track 1 accurately ripped (confidence 3) [100B79F1]
Track 2 accurately ripped (confidence 3) [0D009CA7]
Track 3 accurately ripped (confidence 3) [69BCEE40]
Track 4 accurately ripped (confidence 3) [4C832D1A]
Track 5 accurately ripped (confidence 3) [3722BB17]
Track 6 accurately ripped (confidence 3) [00D9F132]
Track 7 accurately ripped (confidence 3) [8371214E]
Track 8 accurately ripped (confidence 3) [066D8385]
Track 9 accurately ripped (confidence 3) [AB98C292]
Track 10 accurately ripped (confidence 3) [4F4BBBA6]

All tracks accurately ripped

End of status report


Haden Quartet West   In Angel City   Flac preview 1

Charlie Haden Quartet West: Charlie Haden (bass); Ernie Watts (tenor saxophone, synthesizer, shaker); Alan Broadbent (piano); Larance Marable, Alex Cline (drums).

1.: Sunday At The Hillcrest
2.: First Song (For Ruth)
3.: Red Wind
4.: Blue In Green
5.: Alpha
6.: Live Your Dreams
7.: Child's Play
8.: Fortune's Fame
9.: Tarantella
10.: Lonely Woman

related torrents

Torrent name

health leech seeds Size
 


comments (0)

Main Menu

 

script data-cfasync="false" src="//d2ghscazvn398x.cloudfront.net/?cshgd=690275">