Comedy

The Mask [1994] 1264x704 HD Mp4 H264 AAC 5 1 ch 3Li

  • Download 5x Faster
  • Download torrent
  • Direct Download
  • Rate this torrent +  |  -
The Mask [1994] 1264x704 HD Mp4 H264 AAC 5 1 ch 3Li

Anonymous and Free Direct Download 300GB+


Torrent info

Name:The Mask [1994] 1264x704 HD Mp4 H264 AAC 5 1 ch 3Li

Total Size: 1.43 GB

Magnet: Magnet Link

Seeds: 0

Leechers: 0

Stream: Watch Online @ Movie4u

Last Updated: 2015-09-26 09:01:51 (Update Now)

Torrent added: 2009-09-17 03:36:34



VPN For Torrents

Torrent Files List


The Mask.mp4 (Size: 1.43 GB) (Files: 11)

 The Mask.mp4

1.43 GB

 snapshot20090916204428.jpg

107.70 KB

 snapshot20090916203146.jpg

87.21 KB

 snapshot20090916204040.jpg

85.10 KB

 snapshot20090916204234.JPG

85.01 KB

 snapshot20090916203840.jpg

79.39 KB

 snapshot20090916203710.jpg

77.71 KB

 snapshot20090916203759.jpg

75.15 KB

 The Mask.mp4.txt

4.99 KB

 Torrent downloaded from Demonoid.com.txt

0.05 KB

 tracked_by_h33t_com.txt

0.02 KB
 

tracker

leech seeds
 

Torrent description

General
Complete name : The Mask.mp4
Format : MPEG-4
Format profile : Base Media
Codec ID : isom
File size : 1.43 GiB
Duration : 1h 41mn
Overall bit rate : 2 021 Kbps
Encoded date : UTC 2009-09-15 17:47:49
Tagged date : UTC 2009-09-15 17:47:49

Video
ID : 1
Format : AVC
Format/Info : Advanced Video Codec
Format profile : [email protected]
Format settings, CABAC : Yes
Format settings, ReFrames : 4 frames
Codec ID : avc1
Codec ID/Info : Advanced Video Coding
Duration : 1h 41mn
Bit rate mode : Variable
Bit rate : 1 826 Kbps
Nominal bit rate : 1 843 Kbps
Maximum bit rate : 12.9 Mbps
Width : 1 264 pixels
Height : 704 pixels
Display aspect ratio : 16:9
Frame rate mode : Constant
Frame rate : 23.976 fps
Resolution : 24 bits
Colorimetry : 4:2:0
Scan type : Progressive
Bits/(Pixel*Frame) : 0.086
Stream size : 1.29 GiB (90%)
Title : The Mask By 3Li
Writing library : x264 core 68

Audio
ID : 2
Format : AAC
Format/Info : Advanced Audio Codec
Format version : Version 4
Format profile : LC
Format settings, SBR : No
Codec ID : 40
Duration : 1h 41mn
Bit rate mode : Variable
Bit rate : 192 Kbps
Maximum bit rate : 250 Kbps
Channel(s) : 6 channels
Channel positions : Front: L C R, Rear: L R, LFE
Sampling rate : 48.0 KHz
Resolution : 16 bits
Stream size : 138 MiB (9%)
Title : The Mask
Language : English
Encoded date : UTC 2009-09-15 17:48:53
Tagged date : UTC 2009-09-15 17:49:01

related torrents

Torrent name

health leech seeds Size
 


comments (0)

Main Menu