Sci-Fi

Demolition Man [1993] 1280x720 HD Mp4 H264 AAC 5 1 ch 3Li

  • Download 5x Faster
  • Download torrent
  • Direct Download
  • Rate this torrent +  |  -
Demolition Man [1993] 1280x720 HD Mp4 H264 AAC 5 1 ch 3Li

Anonymous and free Direct Download 300GB+


Torrent info

Name:Demolition Man [1993] 1280x720 HD Mp4 H264 AAC 5 1 ch 3Li

Total Size: 1.43 GB

Magnet: Magnet Link

Seeds: 1

Leechers: 1

Stream: Watch Online @ Movie4u

Last Updated: 2015-11-06 18:41:45 (Update Now)

Torrent added: 2009-09-17 03:36:31



VPN For Torrents

Torrent Files List


Demolition Man.mp4 (Size: 1.43 GB) (Files: 12)

 Demolition Man.mp4

1.43 GB

 snapshot20090916225247.jpg

121.68 KB

 snapshot20090916225236.jpg

106.26 KB

 snapshot20090916224436.jpg

76.56 KB

 snapshot20090916225529.jpg

72.83 KB

 snapshot20090916224513.jpg

68.18 KB

 snapshot20090916224550.jpg

68.08 KB

 snapshot20090916225313.jpg

60.32 KB

 snapshot20090916225203.jpg

59.83 KB

 Demolition Man.mp4.txt

5.03 KB

 Torrent downloaded from Demonoid.com.txt

0.05 KB

 tracked_by_h33t_com.txt

0.02 KB
 

tracker

leech seeds
 

Torrent description

General
Complete name : Demolition Man.mp4
Format : MPEG-4
Format profile : Base Media
Codec ID : isom
File size : 1.43 GiB
Duration : 1h 54mn
Overall bit rate : 1 786 Kbps
Encoded date : UTC 2009-09-15 18:08:31
Tagged date : UTC 2009-09-15 18:08:31

Video
ID : 1
Format : AVC
Format/Info : Advanced Video Codec
Format profile : [email protected]
Format settings, CABAC : Yes
Format settings, ReFrames : 4 frames
Codec ID : avc1
Codec ID/Info : Advanced Video Coding
Duration : 1h 53mn
Bit rate mode : Variable
Bit rate : 1 613 Kbps
Nominal bit rate : 1 622 Kbps
Maximum bit rate : 6 136 Kbps
Width : 1 280 pixels
Height : 720 pixels
Display aspect ratio : 16:9
Frame rate mode : Constant
Frame rate : 23.976 fps
Resolution : 24 bits
Colorimetry : 4:2:0
Scan type : Progressive
Bits/(Pixel*Frame) : 0.073
Stream size : 1.28 GiB (89%)
Title : Demolition Man By 3Li
Writing library : x264 core 68

Audio
ID : 2
Format : AAC
Format/Info : Advanced Audio Codec
Format version : Version 4
Format profile : LC
Format settings, SBR : No
Codec ID : 40
Duration : 1h 54mn
Bit rate mode : Variable
Bit rate : 192 Kbps
Maximum bit rate : 276 Kbps
Channel(s) : 6 channels
Channel positions : Front: L C R, Rear: L R, LFE
Sampling rate : 48.0 KHz
Resolution : 16 bits
Stream size : 156 MiB (11%)
Title : Demolition Man
Language : English
Encoded date : UTC 2009-09-15 18:09:12
Tagged date : UTC 2009-09-15 18:09:18

related torrents

Torrent name

health leech seeds Size
 


comments (0)

Main Menu