Comedy

A Night At The Roxbury [1998] 1280x720 HD Mp4 H264 AAC 5 1 ch 3Li

  • Download 5x Faster
  • Download torrent
  • Direct Download
  • Rate this torrent +  |  -


Torrent info

Name:A Night At The Roxbury [1998] 1280x720 HD Mp4 H264 AAC 5 1 ch 3Li

Total Size: 1.60 GB

Magnet: Magnet Link

Seeds: 1

Leechers: 2

Stream: Watch Online @ Movie4u

Last Updated: 2015-09-26 09:01:41 (Update Now)

Torrent added: 2009-09-17 01:34:23



VPN For Torrents

Torrent Files List


A Night At The Roxbury.mp4 (Size: 1.60 GB) (Files: 17)

 A Night At The Roxbury.mp4

1.60 GB

 snapshot20090917043042.jpg

144.57 KB

 snapshot20090917043411.jpg

133.21 KB

 snapshot20090917043421.jpg

123.33 KB

 snapshot20090917042821.jpg

121.65 KB

 snapshot20090917043513.jpg

119.18 KB

 snapshot20090917043447.jpg

101.84 KB

 snapshot20090917044149.jpg

100.62 KB

 snapshot20090917042405.jpg

98.12 KB

 snapshot20090917043111.jpg

95.62 KB

 snapshot20090917042908.jpg

95.31 KB

 snapshot20090917042340.jpg

90.87 KB

 snapshot20090917044107.jpg

77.90 KB

 A Night At The Roxbury.sub

55.78 KB

 A Night At The Roxbury.mp4.txt

4.96 KB

 Torrent downloaded from Demonoid.com.txt

0.05 KB

 tracked_by_h33t_com.txt

0.02 KB
 

tracker

leech seeds
 

Torrent description

General
Complete name : A Night At The Roxbury.mp4
Format : MPEG-4
Format profile : Base Media
Codec ID : isom
File size : 1.60 GiB
Duration : 1h 21mn
Overall bit rate : 2 794 Kbps
Encoded date : UTC 2009-09-15 20:25:49
Tagged date : UTC 2009-09-15 20:25:49

Video
ID : 1
Format : AVC
Format/Info : Advanced Video Codec
Format profile : [email protected]
Format settings, CABAC : Yes
Format settings, ReFrames : 5 frames
Codec ID : avc1
Codec ID/Info : Advanced Video Coding
Duration : 1h 21mn
Bit rate mode : Variable
Bit rate : 2 600 Kbps
Maximum bit rate : 6 107 Kbps
Width : 1 280 pixels
Height : 720 pixels
Display aspect ratio : 16:9
Frame rate mode : Constant
Frame rate : 23.976 fps
Resolution : 24 bits
Colorimetry : 4:2:0
Scan type : Progressive
Bits/(Pixel*Frame) : 0.118
Stream size : 1.49 GiB (93%)
Title : A Night At The Roxbury
Writing library : x264 core 65

Audio
ID : 2
Format : AAC
Format/Info : Advanced Audio Codec
Format version : Version 4
Format profile : LC
Format settings, SBR : No
Codec ID : 40
Duration : 1h 21mn
Bit rate mode : Variable
Bit rate : 192 Kbps
Maximum bit rate : 228 Kbps
Channel(s) : 6 channels
Channel positions : Front: L C R, Rear: L R, LFE
Sampling rate : 48.0 KHz
Resolution : 16 bits
Stream size : 112 MiB (7%)
Title : A Night At The Roxbury
Language : English
Encoded date : UTC 2009-09-15 20:27:38
Tagged date : UTC 2009-09-15 20:27:42

related torrents

Torrent name

health leech seeds Size
 


comments (0)

Main Menu