Thriller

Ronnie [2002] DVDRip XViD Fico

  • Download 5x Faster
  • Download torrent
  • Direct Download
  • Rate this torrent +  |  -
Ronnie [2002] DVDRip XViD Fico

Anonymous and Free Direct Download 300GB+


Torrent info

Name:Ronnie [2002] DVDRip XViD Fico

Total Size: 700.10 MB

Magnet: Magnet Link

Seeds: 0

Leechers: 0

Stream: Watch Online @ Movie4u

Last Updated: 2015-04-17 16:49:38 (Update Now)

Torrent added: 2009-09-17 01:33:06



VPN For Torrents

Torrent Files List


fico-nextkiller-subs (Size: 700.10 MB) (Files: 7)

 fico-nextkiller-subs

  fico-nextkiller.idx

34.32 KB

  fico-nextkiller.rar

450.73 KB

 fico-nextkiller.avi

699.57 MB

 fico-nextkiller.nfo

8.59 KB

 INVITATION!!!.txt

8.74 KB

 Ronnie.jpg

31.21 KB

 Seedboxes!!!.txt

0.22 KB
 

tracker

leech seeds
 

Torrent description

Ronnie [2002] DVDRip XViD-Fico



General
Complete name : Ronnie [2002] DVDRip XViD-Fico.avi
Format : AVI
Format/Info : Audio Video Interleave
File size : 700 MiB
Duration : 1h 24mn
Overall bit rate : 1 163 Kbps
Writing application : VirtualDubMod 1.5.10.2 (build 2540/release)
Writing library : VirtualDubMod build 2540/release

Video
Format : MPEG-4 Visual
Format profile : Streaming [email protected]
Format settings, BVOP : Yes
Format settings, QPel : No
Format settings, GMC : No warppoints
Format settings, Matrix : Default
Codec ID : XVID
Codec ID/Hint : XviD
Duration : 1h 24mn
Bit rate : 1 029 Kbps
Width : 512 pixels
Height : 384 pixels
Display aspect ratio : 4/3
Frame rate : 23.976 fps
Resolution : 24 bits
Colorimetry : 4:2:0
Scan type : Progressive
Bits/(Pixel*Frame) : 0.218
Stream size : 619 MiB (88%)
Writing library : XviD 1.1.2 (UTC 2006-11-01)

Audio
Format : MPEG Audio
Format version : Version 1
Format profile : Layer 3
Codec ID : 55
Codec ID/Hint : MP3
Duration : 1h 24mn
Bit rate mode : Variable
Bit rate : 121 Kbps
Channel(s) : 2 channels
Sampling rate : 48.0 KHz
Resolution : 16 bits
Stream size : 72.8 MiB (10%)
Alignment : Aligned on interleaves
Interleave, duration : 24 ms (0.58 video frame)
Interleave, preload duration : 507 ms


Adam Scott ... Ronnie Schwann
Mark Pellegrino ... Keith Schwann
Fini Goodman ... Sara
Aimee Graham ... Kelly
Jennifer Darling... Mamma
Matt Casado ... Ratt





Ronnie Schwann, a young man regarded as "slow," has affections for Sarah, a young woman who stays at Hope House, a facility for the mentally ill. Though Ronnie works at Hope House he doesn't follow procedure when he finds Sarah wandering outside the confines. He secrets her away, planning a seduction. His plans go awry, however, when his older brother, Keith, returns from prison.

related torrents

Torrent name

health leech seeds Size
 


comments (0)

Main Menu