Comedy

The Evening Star (1996)

  • Download 5x Faster
  • Download torrent
  • Direct Download
  • Rate this torrent +  |  -
The Evening Star (1996)

Anonymous and Free Direct Download 300GB+


Torrent info

Name:The Evening Star (1996)

Total Size: 694.89 MB

Magnet: Magnet Link

Seeds: 3

Leechers: 1

Stream: Watch Online @ Movie4u

Last Updated: 2016-12-05 14:20:12 (Update Now)

Torrent added: 2008-08-26 15:48:39



VPN For Torrents

Torrent Files List


Info about this release.txt (Size: 694.89 MB) (Files: 4)

 Info about this release.txt

4.48 KB

 Notes on subtitle files.txt

1.68 KB

 The Evening Star (1996) MacLaine (DVDrip opt.NL subs)_Kuth.avi

694.11 MB

 The Evening Star (1996) optional Dutch subs.rar

788.02 KB
 

tracker

leech seeds
 

Torrent description

The Evening Star (1996)
DVDrip English, optional Dutch subs in separate idx/sub files.

This classic with Shirley MacLaine continues the story from 'Terms of Endearment'. No torrent for this film remains on the net, so I bought a copy of the only available European edition. It has only Dutch subtitles, so I kept them as an obtion for our friends in the Netherlands.

My new ripping procedure now produces decent quality for such a long film compressed into just 700 MiB.

DVDrip XviD 2-pass AC3.
Letterbox format 672x512, great stereo AC3.

Burn tested, runs well in my standalone DivX player.

Source: PAL retail (note that PAL/NTSC will give no problems for avi files)

Format/Info : Audio Video Interleave
File size : 694 MiB
Duration : 2h 3mn
Overal bit rate : 786 Kbps

Video
Format : MPEG-4 Visual
Format profile : Streaming [email protected]
Format settings, BVOP : Yes
Format settings, QPel : No
Format settings, GMC : No warppoints
Format settings, Matrix : Default
Muxing mode : Packet Bitstream
Codec ID : XVID
Codec ID/Hint : XviD
Duration : 2h 3mn
Bit rate : 648 Kbps
Width : 672 pixels
Height : 512 pixels
Display aspect ratio : 4/3
Frame rate : 25.000 fps
Resolution : 8 bits
Colorimetry : 4:2:0
Scan type : Progressive
Bits/(Pixel*Frame) : 0.075
Stream size : 573 MiB
Writing library : XviD 1.2.0.dev47 (UTC 2006-11-01)

Audio
Format : MPEG Audio
Format version : Version 1
Format profile : Layer 3
Codec ID : 55
Codec ID/Hint : MP3
Duration : 2h 3mn
Bit rate mode : Constant
Bit rate : 128 Kbps
Minimum bit rate : 128 Kbps
Channel(s) : 2 channels
Sampling rate : 48.0 KHz
Resolution : 16 bits
Stream size : 113 MiB
Writing library : LAME3.97
Encoding settings : CBR

Thanks to the uploader!

And the boss says ...

related torrents

Torrent name

health leech seeds Size
 


comments (0)

Main Menu