Comedy

I LOVE YOU MAN(2009)DVDrip[ENG]harry989

  • Download 5x Faster
  • Download torrent
  • Direct Download
  • Rate this torrent +  |  -
I LOVE YOU MAN(2009)DVDrip[ENG]harry989

Anonymous and Direct Download 300GB+ free


Torrent info

Name:I LOVE YOU MAN(2009)DVDrip[ENG]harry989

Total Size: 0.98 GB

Magnet: Magnet Link

Seeds: 0

Leechers: 0

Stream: Watch Online @ Movie4u

Last Updated: 2010-10-02 00:52:35 (Update Now)

Torrent added: 2009-09-16 22:38:22




Torrent Files List


NFO.txt (Size: 0.98 GB) (Files: 3)

 NFO.txt

1.75 KB

 Sex Drive.avi

0.98 GB

 tracked_by_h33t_com.txt

0.02 KB
 

Announce URL: http://www.h33t.com:3310/announce

Torrent description



: I LOVE YOU MAN\avi
Format : AVI
Format/Info : Audio Video Interleave
File size : 1 004 MiB
Duration : 1h 44mn
Overall bit rate : 1 341 Kbps
Writing application : Lavf51.12.1

Video
Format : xvid
Codec ID : xvid
Duration : 1h 44mn
Bit rate : 1 199 Kbps
Width : 720 pixels
Height : 480 pixels
Display aspect ratio : 1.500
Frame rate : 29.970 fps
Standard : NTSC
Resolution : 24 bits
Bits/(Pixel*Frame) : 0.116
Stream size : 898 MiB (89%)

Audio
ID : 1
Format : MPEG Audio
Format version : Version 1
Format profile : Layer 3
Codec ID : 55
Codec ID/Hint : MP3
Duration : 1h 44mn
Bit rate mode : Constant
Bit rate : 128 Kbps
Channel(s) : 2 channels
Sampling rate : 48.0 KHz
Resolution : 16 bits
Stream size : 95.8 MiB (10%)
Alignment : Aligned on interleaves
Interleave, duration : 24 ms (0.72 video frame)
Interleave, preload duration : 24 ms
Writing library : LAME3


hash:9099CC5598AF85D54DE75247B7B52A785742C2F0

************Check us out at torenster.com***********
*******************darksiderg.com*******************

related torrents

Torrent name

health leech seeds Size
 


comments (0)

Main Menu