Comedy

CUSTOM DVD AWAY WE GO COM torrent [supreme speeds com]

  • Download 5x Faster
  • Download torrent
  • Direct Download
  • Rate this torrent +  |  -
CUSTOM DVD AWAY WE GO COM torrent [supreme speeds com]

Anonymous and Free Direct Download 300GB+


Torrent info

Name:CUSTOM DVD AWAY WE GO COM torrent [supreme speeds com]

Total Size: 1.18 GB

Magnet: Magnet Link

Seeds: 2

Leechers: 0

Stream: Watch Online @ Movie4u

Last Updated: 2010-08-25 16:46:42 (Update Now)

Torrent added: 2009-09-16 20:34:29



VPN For Torrents

Torrent Files List


VIDEO_TS (Size: 1.18 GB) (Files: 8)

 VIDEO_TS

  VIDEO_TS.BUP

12.00 KB

  VIDEO_TS.IFO

12.00 KB

  VIDEO_TS.VOB

52.00 KB

  VTS_01_0.BUP

76.00 KB

  VTS_01_0.IFO

76.00 KB

  VTS_01_0.VOB

23.78 MB

  VTS_01_1.VOB

1.00 GB

  VTS_01_2.VOB

164.16 MB
 

Announce URL: http://supreme-speeds.com/announce.php?passkey=15227698a2d5738ac11d0cc8b725e28b

Torrent description

Details for torrent " CUSTOM DVD AWAY WE GO WWW.SUPREME-SPEEDS.COM "
THIS IS A CUSTOM DVD FILES R READY TO BURN STRAIGHT TO DISC THREW NERO

SO SIT BK AND ENJOY


Away We Go (2009) More at IMDbPro »
Away We Go (2009) More at IMDbPro » Genre: Comedy | Drama
Release Date: 15 October 2009 (Germany)
User Rating: 7.9/10 7.9/10 2,995 votes
Language: English
Country: USA
Runtime: USA:98 min
Plot Outline: A couple who is expecting their first child travel around the U.S. in order to find a perfect place to start their family. Along the way, they have misadventures and find fresh connections with an assortment of relatives and old friends who just might help them discover "home" on their own terms for the first time. full summary | full synopsis
IMDB Link: http://www.imdb.com/title/tt1176740/T

Video
ID : 224 (0xE0)
Format : MPEG Video
Format version : Version 2
Format profile : [email protected]
Format settings, Matrix : Default
Duration : 1h 22mn
Bit rate mode : Variable
Bit rate : 1 475 Kbps
Nominal bit rate : 9 608 Kbps
Width : 720 pixels
Height : 480 pixels
Display aspect ratio : 16/9
Frame rate : 29.970 fps
Standard : NTSC
Colorimetry : 4:2:0
Scan type : Progressive
Bits/(Pixel*Frame) : 0.142
Stream size : 870 MiB (85%)

Audio
ID : 128 (0x80)
Format : AC-3
Format/Info : Audio Coding 3
Duration : 1h 22mn
Bit rate mode : Constant
Bit rate : 192 Kbps
Channel(s) : 2 channels
Channel positions : L R
Sampling rate : 48.0 KHz
Stream size : 113 MiB (11%)

related torrents

Torrent name

health leech seeds Size
 


comments (0)

Main Menu