Drama

Away We Go [2009]DVDRip XviD DiAMOND

  • Download 5x Faster
  • Download torrent
  • Direct Download
  • Rate this torrent +  |  -
Away We Go [2009]DVDRip XviD DiAMOND

Free and Direct Download with Usenet.nl 300GB+ free


Torrent info

Name:Away We Go [2009]DVDRip XviD DiAMOND

Total Size: 697.68 MB

Magnet: Magnet Link

Seeds: 1

Leechers: 10

Stream: Watch Online @ Movie4u

Last Updated: 2011-01-03 11:25:53 (Update Now)

Torrent added: 2009-09-16 19:37:46





Torrent Files List


dmd-awg-subs (Size: 697.68 MB) (Files: 3)

 dmd-awg-subs

  dmd-awg-sub.rar

2.56 MB

  dmd-awg.idx

178.42 KB

 Away We Go [2009]DVDRip XviD-DiAMOND.rar

694.95 MB
 

Announce URL: http://genesis.1337x.org:1337/announce

Torrent description

Away We Go [2009]DVDRip XviD-DiAMOND


General
Complete name : Away We Go [2009]DVDRip XviD-DiAMOND.avi
Format : AVI
Format/Info : Audio Video Interleave
File size : 700 MiB
Duration : 1h 37mn
Overall bit rate : 1 001 Kbps
Writing application : VirtualDubMod 1.5.10.2 (build 2542/release)
Writing library : VirtualDubMod build 2542/release

Video
Format : MPEG-4 Visual
Format profile : Streaming [email protected]
Format settings, BVOP : Yes
Format settings, QPel : No
Format settings, GMC : No warppoints
Format settings, Matrix : Default
Muxing mode : Packed bitstream
Codec ID : XVID
Codec ID/Hint : XviD
Duration : 1h 37mn
Bit rate : 856 Kbps
Width : 640 pixels
Height : 272 pixels
Display aspect ratio : 2.35
Frame rate : 23.976 fps
Resolution : 24 bits
Colorimetry : 4:2:0
Scan type : Progressive
Bits/(Pixel*Frame) : 0.205
Stream size : 599 MiB (86%)
Writing library : XviD 1.2.1 (UTC 2008-12-04)

Audio
Format : MPEG Audio
Format version : Version 1
Format profile : Layer 3
Codec ID : 55
Codec ID/Hint : MP3
Duration : 1h 37mn
Bit rate mode : Variable
Bit rate : 132 Kbps
Minimum bit rate : 128 Kbps
Channel(s) : 2 channels
Sampling rate : 48.0 KHz
Resolution : 16 bits
Stream size : 92.4 MiB (13%)
Alignment : Aligned on interleaves
Interleave, duration : 24 ms (0.58 video frame)
Interleave, preload duration : 139 ms
Writing library : LAME3.98r
Encoding settings : VBR (mtrh)


John Krasinski... Burt Farlander
Maya Rudolph... Verona De Tessant
Carmen Ejogo... Grace De Tessant
Catherine O'Hara... Gloria Farlander
Jeff Daniels... Jerry Farlander
Allison Janney... Lily





A couple who is expecting their first child travel around the U.S. in order to find a perfect place to start their family. Along the way, they have misadventures and find fresh connections with an assortment of relatives and old friends who just might help them discover "home" on their own terms for the first time.

related torrents

Torrent name

health leech seeds Size
 

comments (0)

Main Menu