Family

Princess 2008 DVDRip XviD HNR

  • Download 5x Faster
  • Download torrent
  • Direct Download
  • Rate this torrent +  |  -
Princess 2008 DVDRip XviD HNR

Anonymous and Free Direct Download 300GB+


Torrent info

Name:Princess 2008 DVDRip XviD HNR

Total Size: 1.38 GB

Magnet: Magnet Link

Seeds: 0

Leechers: 0

Stream: Watch Online @ Movie4u

Last Updated: 2015-09-20 11:09:55 (Update Now)

Torrent added: 2009-09-16 18:39:13



VPN For Torrents

Torrent Files List


Princess.2008.DVDRip.XviD-HNR (Size: 1.38 GB) (Files: 6)

 Princess.2008.DVDRip.XviD-HNR

  hnr-princess-sample.avi

12.12 MB

  Princess.2008.DVDRip.XviD-HNR.rar

700.42 MB

 hnr-princess.avi

698.17 MB

 hnr-princess.nfo

11.13 KB

 INVITATION!!!.txt

8.74 KB

 Seedboxes!!!.txt

0.22 KB
 

tracker

leech seeds
 

Torrent description

Princess 2008 DVDRip XviD-HNR


General
Complete name : newsbinPrincess.2008.DVDRip.XviD-HNR.avi
Format : AVI
Format/Info : Audio Video Interleave
File size : 698 MiB
Duration : 1h 28mn
Overall bit rate : 1 101 Kbps
Writing application : VirtualDubMod 1.5.10.2 (build 2540/release)
Writing library : VirtualDubMod build 2540/release

Video
Format : MPEG-4 Visual
Format profile : Streaming [email protected]
Format settings, BVOP : Yes
Format settings, QPel : No
Format settings, GMC : No warppoints
Format settings, Matrix : Default
Codec ID : XVID
Codec ID/Hint : XviD
Duration : 1h 28mn
Bit rate : 957 Kbps
Width : 512 pixels
Height : 384 pixels
Display aspect ratio : 4/3
Frame rate : 23.976 fps
Resolution : 24 bits
Colorimetry : 4:2:0
Scan type : Progressive
Bits/(Pixel*Frame) : 0.203
Stream size : 607 MiB (87%)
Writing library : XviD 1.2.1 (UTC 2008-12-04)

Audio
Format : MPEG Audio
Format version : Version 1
Format profile : Layer 3
Codec ID : 55
Codec ID/Hint : MP3
Duration : 1h 28mn
Bit rate mode : Variable
Bit rate : 131 Kbps
Nominal bit rate : 128 Kbps
Channel(s) : 2 channels
Sampling rate : 48.0 KHz
Resolution : 16 bits
Stream size : 83.0 MiB (12%)
Alignment : Aligned on interleaves
Interleave, duration : 24 ms (0.58 video frame)
Interleave, preload duration : 519 ms
Writing library : LAME3.90.
Encoding settings : ABR



Libby Adams ... Little Girl #1
Nicole Gale Anderson ... Jitterbug / Calliope
Mya Rylyn Banks ... Fairy Baby
Devon Bostick
Andrew Craig ... Principal





No plot available.

related torrents

Torrent name

health leech seeds Size
 


comments (0)

Main Menu