Sports related

Pinoy Boxing Sonsona Vs Lopez RNM mp4

  • Download 5x Faster
  • Download torrent
  • Direct Download
  • Rate this torrent +  |  -
Pinoy Boxing Sonsona Vs Lopez RNM mp4

Anonymous and free Direct Download 300GB+


Torrent info

Name:Pinoy Boxing Sonsona Vs Lopez RNM mp4

Total Size: 827.36 MB

Magnet: Magnet Link

Seeds: 20

Leechers: 23

Stream: Watch Online @ Movie4u

Last Updated: 2010-12-16 23:25:20 (Update Now)

Torrent added: 2009-09-16 16:37:07



VPN For Torrents

Torrent Files List


Pinoy Boxing Sonsona Vs Lopez RNM.mp4 (Size: 827.36 MB) (Files: 1)

 Pinoy Boxing Sonsona Vs Lopez RNM.mp4

827.36 MB
 

Announce URL: http://tracker.openbittorrent.com:80/announce

Torrent description

Format : MPEG-4
Format profile : Base Media
Codec ID : isom
File size : 827 MiB
Duration : 54mn 13s
Overall bit rate : 2 133 Kbps
Encoded date : UTC 2009-09-16 19:03:39
Tagged date : UTC 2009-09-16 19:03:39

Video
ID : 1
Format : MPEG-4 Visual
Format profile : [email protected]
Format settings, BVOP : No
Format settings, QPel : No
Format settings, GMC : No warppoints
Format settings, Matrix : Default (H.263)
Codec ID : 20
Duration : 54mn 13s
Bit rate mode : Variable
Bit rate : 2 000 Kbps
Width : 640 pixels
Height : 320 pixels
Display aspect ratio : 16/9
Frame rate mode : Constant
Frame rate : 30.000 fps
Resolution : 24 bits
Colorimetry : 4:2:0
Scan type : Progressive
Bits/(Pixel*Frame) : 0.326
Stream size : 776 MiB (94%)
Writing library : Lavc51.40.4
Encoded date : UTC 2009-09-16 19:03:39
Tagged date : UTC 2009-09-16 19:03:39

Audio
ID : 2
Format : AAC
Format/Info : Advanced Audio Codec
Format version : Version 4
Format profile : LC
Format settings, SBR : No
Codec ID : 40
Duration : 54mn 13s
Bit rate mode : Variable
Bit rate : 128 Kbps
Channel(s) : 2 channels
Channel positions : L R
Sampling rate : 48.0 KHz
Resolution : 16 bits
Stream size : 49.6 MiB (6%)
Encoded date : UTC 2009-09-16 19:03:39
Tagged date : UTC 2009-09-16 19:03:39

related torrents

Torrent name

health leech seeds Size
 


comments (0)

Main Menu