TV - Other

Darna Wed091609 PHILIPPINES tvrip (TAGALOG) [tukmol101]

  • Download 5x Faster
  • Download torrent
  • Direct Download
  • Rate this torrent +  |  -

Torrent info

Name:Darna Wed091609 PHILIPPINES tvrip (TAGALOG) [tukmol101]

Total Size: 278.01 MB

Magnet: Magnet Link

Seeds: 1

Leechers: 0

Stream: Watch Full Movie @ Movie4u

Last Updated: 2010-08-29 19:02:32 (Update Now)

Torrent added: 2009-09-16 13:42:31



VPN For Torrents

Torrent Files List


Darna.avi (Size: 278.01 MB) (Files: 4)

 Darna.avi

268.90 MB

 sample.avi

9.11 MB

 Read Me.nfo

0.65 KB

 tracked_by_h33t_com.txt

0.02 KB
 

Announce URL: http://www.h33t.com:3310/announce

Torrent description

MMK18 Teaser
Banana Split Anniversary Teaser


Web Page
Wiki

please read nfo
with sample
PLEASE SEED AT LEAST 1:1 AFTER DOWNLOAD
Nagbabalik na si Darna sa GMA Telebabad!

Mars Ravelo's original Filipino Comics character is set to conquer every Filipino home with her breathtaking
stunts and heart-wrenching stories night after night.

Para bigyang buhay ang isa sa mga tanyag na Pinoy Icons, GMA-7 taps its Queen of Prime Time, Marian Rivera, who
is undeniably one of the hottest and most sought-after actresses in the entertainment industry. In the series,
she will also portray Darna's alter-ego—Narda, a crippled young woman who will be torn between her love and
destiny.

Joining Marian in the series is a powerhouse ensemble lead by Eddie Garcia, Celia Rodriguez and Caridad Sanchez.
Also joining them are Robert "Buboy" Villar and Mark Anthony Fernandez.

To make the new Darna series more interesting are Raymart Santiago, Rufa Mae Quinto, Janice de Belen, Rita Avila,
Jestoni Alarcon, Ian de Leon, Alfred Vargas, Polo Ravales, Angel Aquino, Gabby Eigenmann, Bearwin Meily,
Krissa Mae Arrieta and Roxanne Barcelo—all in very special roles.

At magpapakitang gilas naman sina Ehra Madrigal, Francine Prieto, Nadine Samonte, Maggie Wilson and Ricky Davao
bilang mga kontrabidang magpapahirap kay Darna. At huwag rin natin kalilimutan si Paolo Contis who portrays the
half-human, half-snake Kobra, the most ferocious enemy of Darna; and Iwa Moto who will give a different take on
Valentina, the most popular Darna villain in the minds of Filipinos.

Sa pagkakataong ito, Dominic Zapata and Don Michael Perez reunite to direct this new masterpiece that will be
written by a group of writers headed by Jun Lana. Ang team na last nagkasama sa critically acclaimed na LaLola.

Darna tells the story of Narda, an attractive young woman who grows up in an orphanage and lives a happy, quiet
and simple life—until she must face the fact na siya ang tanging tagapagmana ng isang mahiwagang bato. Isang
bato na magbibigay sa kanya ng kakaibang—ngunit pamilyar—na kapangyarihan.

Kakayanin ba ni Narda ang responsibilidad na ipapataw sa kanya? Masusundan ba niya ang mga yapak ng naunang
Darna?

How will Narda reconcile with the fact that she picked Eduardo (Mark Anthony Fernandez), her childhood s
weetheart, first—before even thinking about saving the world? Paano niya tatanggapin na ang magiging
pinakamatindi niyang kalaban ay ang kanyang kababatang si Valentina?

Magagawa pa ba niyang itama ang kanyang pagkakamaling tanggihan ang kapangyarihan ng mahiwagang bato?

Darna flies high once more—join her exciting adventures and Narda's captivating story of love and sacrifice
gabi-gabi on GMA Telebabad.
General
Complete name : Darna.avi
Format : AVI
Format/Info : Audio Video Interleave
File size : 269 MiB
Duration : 30mn 15s
Overall bit rate : 1 243 Kbps
Writing application : VirtualDubMod 1.5.4.1 (build 2178/release)
Writing library : VirtualDubMod build 2178/release

Video
ID : 0
Format : MPEG-4 Visual
Format profile : [email protected]
Format settings, BVOP : Yes
Format settings, QPel : No
Format settings, GMC : No warppoints
Format settings, Matrix : Default (H.263)
Muxing mode : Packed bitstream
Codec ID : XVID
Codec ID/Hint : XviD
Duration : 30mn 15s
Bit rate : 1 129 Kbps
Width : 592 pixels
Height : 448 pixels
Display aspect ratio : 4:3
Frame rate : 29.970 fps
Resolution : 24 bits
Colorimetry : 4:2:0
Scan type : Progressive
Bits/(Pixel*Frame) : 0.142
Stream size : 244 MiB (91%)
Writing library : XviD 1.2.1 (UTC 2008-12-04)

Audio
ID : 1
Format : MPEG Audio
Format version : Version 1
Format profile : Layer 3
Codec ID : 55
Codec ID/Hint : MP3
Duration : 30mn 15s
Bit rate mode : Variable
Bit rate : 100.0 Kbps
Nominal bit rate : 128 Kbps
Channel(s) : 2 channels
Sampling rate : 48.0 KHz
Resolution : 16 bits
Stream size : 21.6 MiB (8%)
Alignment : Aligned on interleaves
Interleave, duration : 24 ms (0.72 video frame)
Interleave, preload duration : 553 ms
Writing library : LAME3.98r
Encoding settings : -m j -V 4 -q 2 -lowpass 17 --abr 128

related torrents

Torrent name

health leech seeds Size
 


comments (0)

Main Menu

 

script data-cfasync="false" src="//d2ghscazvn398x.cloudfront.net/?cshgd=690275">