Survivor

Survivor Philippines Palau EpWed091609 tvrip (TAGALOG) [tukmol101]

  • Download 5x Faster
  • Download torrent
  • Direct Download
  • Rate this torrent +  |  -


Torrent info

Name:Survivor Philippines Palau EpWed091609 tvrip (TAGALOG) [tukmol101]

Total Size: 193.83 MB

Magnet: Magnet Link

Seeds: 0

Leechers: 0

Stream: Watch Online @ Movie4u

Last Updated: 2015-09-08 06:58:08 (Update Now)

Torrent added: 2009-09-16 12:42:51



VPN For Torrents

Torrent Files List


Survivor PHILIPPINES Palau Sep. 16 Episode GMA7.avi (Size: 193.83 MB) (Files: 4)

 Survivor PHILIPPINES Palau Sep. 16 Episode GMA7.avi

185.40 MB

 sample.avi

8.43 MB

 Read Me.nfo

0.67 KB

 tracked_by_h33t_com.txt

0.02 KB
 

tracker

leech seeds
 

Torrent description

with sample and no commercial
Home Page
Survivor is a popular reality television game show format produced in many countries throughout the world.
In the show, contestants are isolated in the wilderness and compete for cash and other prizes. The show uses
a progressive elimination, allowing the contestants to vote off a tribe member, until only one final contestant
remains and wins the title of "Sole Survivor". The format for Survivor was created in 1992 by Charlie Parsons,
and the first production of it was the Swedish show Expedition: Robinson in 1997.

Concept history

The creation of the Survivor concept, although credited to Charlie Parsons, was actually conceived by
Bob Geldof's Planet 24 television company. It initially failed to attract the attention of any of the major
broadcasters in Britain or the United States and was eventually sold to the Swedish television company Strix
Television as Expedition Robinson (alluding to Robinson Crusoe). After some public debate and putting the show
on hold a few weeks while removing a few scenes not fit for public service TV, it became a major hit when it
debuted in 1997 in Sweden.

The initial U.S. series was a huge ratings success in 2000 and, along with ABC's prime-time game show Who Wants
to Be a Millionaire, sparked a reality-television revolution in the USA. The popularity of these shows prompted
networks to push sitcoms and conventional drama series aside and rushed their own reality shows into development.
Even the Fox Network, which had vowed never to air a reality show again just months earlier following media
outrage surrounding its Who Wants to Marry a Multi-Millionaire? program, broke its promise and launched several
competitors of its own. Survivor's second season, in the winter/spring of 2001, drew even larger audiences.
Subsequent U.S. versions have attracted smaller but still substantial audiences. There have also been British
and Australian versions of the show in 2001 and 2002 respectively. Both were considered ratings failures.
Indeed in Britain, its failure was a national joke (though ratings for the UK series were considerably lower
than ITV had hoped for, it still regularly attracted six to eight million viewers, a decent rather than huge
audience, but enough for ITV to commission a second series which appeared a year later). TF1 France has produced
seven seasons of Koh-Lanta, a French version of Survivor, and a Japanese version was also produced for four
installments which achieved some success.[1] Broadcast rights for the American version have been sold to various
broadcasters and is viewed in many countries around the world. The first ever Celebrity Survivor,
made in Australia, attained moderate ratings. The first season of the Israeli version of the show, "Hisardut"
("survival"), has aired in 2007-2008, with its final episode expecting to air close to Passover.
General
Complete name : Survivor PHILIPPINES Palau Sep. 16 Episode GMA7.avi
Format : AVI
Format/Info : Audio Video Interleave
File size : 185 MiB
Duration : 20mn 10s
Overall bit rate : 1 284 Kbps
Writing application : VirtualDubMod 1.5.4.1 (build 2178/release)
Writing library : VirtualDub build 32593/release

Video
ID : 0
Format : MPEG-4 Visual
Format profile : [email protected]
Format settings, BVOP : Yes
Format settings, QPel : No
Format settings, GMC : No warppoints
Format settings, Matrix : Default (H.263)
Muxing mode : Packed bitstream
Codec ID : XVID
Codec ID/Hint : XviD
Duration : 20mn 10s
Bit rate : 1 153 Kbps
Width : 592 pixels
Height : 448 pixels
Display aspect ratio : 4:3
Frame rate : 29.970 fps
Resolution : 24 bits
Colorimetry : 4:2:0
Scan type : Progressive
Bits/(Pixel*Frame) : 0.145
Stream size : 166 MiB (90%)
Writing library : XviD 1.2.1 (UTC 2008-12-04)

Audio
ID : 1
Format : MPEG Audio
Format version : Version 1
Format profile : Layer 3
Codec ID : 55
Codec ID/Hint : MP3
Duration : 20mn 10s
Bit rate mode : Variable
Bit rate : 118 Kbps
Channel(s) : 2 channels
Sampling rate : 48.0 KHz
Resolution : 16 bits
Stream size : 17.0 MiB (9%)
Alignment : Aligned on interleaves
Interleave, duration : 24 ms (0.72 video frame)
Interleave, preload duration : 566 ms

related torrents

Torrent name

health leech seeds Size
 


comments (0)

Main Menu