Comedy

The Perfect Score[2004]DVDRip XViD ALLiANCE

  • Download 5x Faster
  • Download torrent
  • Direct Download
  • Rate this torrent +  |  -
The Perfect Score[2004]DVDRip XViD ALLiANCE

Anonymous and Direct Download 300GB+ free


Torrent info

Name:The Perfect Score[2004]DVDRip XViD ALLiANCE

Total Size: 706.34 MB

Magnet: Magnet Link

Seeds: 1

Leechers: 0

Stream: Watch Online @ Movie4u

Last Updated: 2016-08-30 23:25:26 (Update Now)

Torrent added: 2009-09-16 11:38:34




Torrent Files List


alli-the.perfect.score-sample.avi (Size: 706.34 MB) (Files: 2)

 alli-the.perfect.score-sample.avi

6.74 MB

 The Perfect Score[2004]DVDRip-XViD ALLiANCE.rar

699.59 MB
 

tracker

leech seeds
 

Torrent description

The Perfect Score[2004]DVDRip-XViD ALLiANCE


General
Complete name : The Perfect Score[2004]DVDRip-XViD ALLiANCE.avi
Format : AVI
Format/Info : Audio Video Interleave
File size : 699 MiB
Duration : 1h 32mn
Overall bit rate : 1 057 Kbps
Writing application : Nandub v1.0rc2
Writing library : Nandub build 1853/release

Video
Format : MPEG-4 Visual
Format settings, BVOP : Yes
Format settings, QPel : No
Format settings, GMC : No warppoints
Format settings, Matrix : Default
Codec ID : XVID
Codec ID/Hint : XviD
Duration : 1h 32mn
Bit rate : 904 Kbps
Width : 576 pixels
Height : 304 pixels
Display aspect ratio : 1.895
Frame rate : 23.976 fps
Resolution : 24 bits
Scan type : Progressive
Bits/(Pixel*Frame) : 0.215
Stream size : 598 MiB (86%)

Audio
Format : MPEG Audio
Format version : Version 1
Format profile : Layer 3
Codec ID : 55
Codec ID/Hint : MP3
Duration : 1h 32mn
Bit rate mode : Variable
Bit rate : 140 Kbps
Channel(s) : 2 channels
Sampling rate : 48.0 KHz
Resolution : 16 bits
Stream size : 92.7 MiB (13%)
Alignment : Aligned on interleaves
Interleave, duration : 24 ms (0.58 video frame)
Interleave, preload duration : 126 ms
Writing library : LAME3.91
Encoding settings : VBR (mtrh)


Erika Christensen ... Anna Ross
Chris Evans ... Kyle
Bryan Greenberg ... Matty Matthews
Scarlett Johansson ... Francesca Curtis
Darius Miles ... Desmond Rhodes
Leonardo Nam ... Roy




It's a film about 6 teenagers from diverse backgrounds - among them the school's star basketball player - who conspire to break into a SAT testing center to steal the answers in hope of acing their exam. They quickly realize that the answer to their problems and the key to their happiness do not lie in achieving a perfect score.

related torrents

Torrent name

health leech seeds Size
 


comments (0)

Main Menu