Sci-Fi

Total Recall [1990] 1280x688 HD Mp4 H264 AAC 5 1 ch 3Li

  • Download 5x Faster
  • Download torrent
  • Direct Download
  • Rate this torrent +  |  -
Total Recall [1990] 1280x688 HD Mp4 H264 AAC 5 1 ch 3Li

Free and Direct Download with Usenet.nl 300GB+ free


Torrent info

Name:Total Recall [1990] 1280x688 HD Mp4 H264 AAC 5 1 ch 3Li

Total Size: 1.42 GB

Magnet: Magnet Link

Seeds: 0

Leechers: 0

Stream: Watch Online @ Movie4u

Last Updated: 2015-09-08 15:10:16 (Update Now)

Torrent added: 2009-09-16 10:41:57





Torrent Files List


snapshot20090915124344.jpg (Size: 1.42 GB) (Files: 14)

 snapshot20090915124344.jpg

100.25 KB

 snapshot20090915124426232e.JPG

117.70 KB

 snapshot20090915124426243wed.JPG

77.04 KB

 snapshot2009091512442624ewrerf.JPG

72.46 KB

 snapshot200909151244263543rfer.JPG

75.40 KB

 snapshot200909151244263re3ersdf.JPG

75.53 KB

 snapshot200909151246192342.JPG

80.45 KB

 snapshot200909151246193434.JPG

75.26 KB

 snapshot20090915124619343434.JPG

78.34 KB

 snapshot200909151246193542334243234.JPG

99.10 KB

 Torrent downloaded from Demonoid.com.txt

0.05 KB

 Total Recall.mp4

1.42 GB

 Total Recall.mp4.txt

5.02 KB

 tracked_by_h33t_com.txt

0.02 KB
 

tracker

leech seeds
 

Torrent description




General
Complete name : Total Recall.mp4
Format : MPEG-4
Format profile : Base Media
Codec ID : isom
File size : 1.42 GiB
Duration : 1h 53mn
Overall bit rate : 1 798 Kbps
Encoded date : UTC 2009-09-14 11:26:30
Tagged date : UTC 2009-09-14 11:26:30

Video
ID : 1
Format : AVC
Format/Info : Advanced Video Codec
Format profile : [email protected]
Format settings, CABAC : Yes
Format settings, ReFrames : 4 frames
Codec ID : avc1
Codec ID/Info : Advanced Video Coding
Duration : 1h 53mn
Bit rate mode : Variable
Bit rate : 1 603 Kbps
Nominal bit rate : 1 624 Kbps
Maximum bit rate : 7 235 Kbps
Width : 1 280 pixels
Height : 688 pixels
Display aspect ratio : 1.860
Frame rate mode : Constant
Frame rate : 23.976 fps
Resolution : 24 bits
Colorimetry : 4:2:0
Scan type : Progressive
Bits/(Pixel*Frame) : 0.076
Stream size : 1.27 GiB (89%)
Title : Total Recall By 3li
Writing library : x264 core 68

Audio
ID : 2
Format : AAC
Format/Info : Advanced Audio Codec
Format version : Version 4
Format profile : LC
Format settings, SBR : No
Codec ID : 40
Duration : 1h 53mn
Bit rate mode : Variable
Bit rate : 192 Kbps
Maximum bit rate : 214 Kbps
Channel(s) : 6 channels
Channel positions : Front: L C R, Rear: L R, LFE
Sampling rate : 48.0 KHz
Resolution : 16 bits
Stream size : 155 MiB (11%)
Title : Total Recall
Language : English
Encoded date : UTC 2009-09-14 11:27:09
Tagged date : UTC 2009-09-14 11:27:22

related torrents

Torrent name

health leech seeds Size
 

comments (0)

Main Menu