Drama

Buddenbrooks AC3 5,1 DVDRip[Ger]2008

  • Download 5x Faster
  • Download torrent
  • Direct Download
  • Rate this torrent +  |  -
Buddenbrooks AC3 5,1 DVDRip[Ger]2008

Free and Direct Download with Usenet 300GB+ free


Torrent info

Name:Buddenbrooks AC3 5,1 DVDRip[Ger]2008

Total Size: 1.61 GB

Magnet: Magnet Link

Seeds: 1

Leechers: 1

Stream: Watch Online @ Movie4u

Last Updated: 2012-07-25 23:49:06 (Update Now)

Torrent added: 2009-09-16 10:39:15




Torrent Files List


Buddenbrooks-AC3-5,1-DVDRip[Ger]2008.avi (Size: 1.61 GB) (Files: 3)

 Buddenbrooks-AC3-5,1-DVDRip[Ger]2008.avi

1.61 GB

 Buddenbrooks-AC3-5,1-DVDRip[Ger]2008.txt

2.33 KB

 Torrent downloaded from Demonoid.com.txt

0.05 KB
 

Announce URL: http://tracker.torrentbox.com:2710/announce

Torrent description

http://www.imdb.com/title/tt1058601/

http://wwws.warnerbros.de/buddenbrooks/

User Rating:5.8/10 - 216 votes

Drama

Director:Heinrich Breloer

Cast:Armin Mueller-Stahl/Iris Berben/Jessica Schwarz/August Diehl, and others.

Info:

General
Complete name : Buddenbrooks-AC3-5,1-DVDRip[Ger]2008.avi
Format : AVI
Format/Info : Audio Video Interleave
File size : 1.61 GiB
Duration : 2h 25mn
Overall bit rate : 1 588 Kbps
Writing application : VirtualDubMod 1.5.4.1 (build 2178/release)
Writing library : VirtualDubMod build 2178/release

Video
Format : MPEG-4 Visual
Format profile : Streaming [email protected]
Format settings, BVOP : Yes
Format settings, QPel : No
Format settings, GMC : No warppoints
Format settings, Matrix : Default
Muxing mode : Packed bitstream
Codec ID : XVID
Codec ID/Hint : XviD
Duration : 2h 25mn
Bit rate : 1 197 Kbps
Width : 704 pixels
Height : 304 pixels
Display aspect ratio : 2.35
Frame rate : 25.000 fps
Resolution : 24 bits
Colorimetry : 4:2:0
Scan type : Progressive
Bits/(Pixel*Frame) : 0.224
Stream size : 1.21 GiB (75%)
Writing library : XviD 50

Audio
Format : AC-3
Format/Info : Audio Coding 3
Codec ID : 2000
Duration : 2h 25mn
Bit rate mode : Constant
Bit rate : 384 Kbps
Channel(s) : 6 channels
Channel positions : Front: L C R, Surround: L R, LFE
Sampling rate : 48.0 KHz
Stream size : 399 MiB (24%)
Alignment : Split accross interleaves
Interleave, duration : 80 ms (2.00 video frames)
Interleave, preload duration : 500 ms
Language : Deutsch

Enjoy...

related torrents

Torrent name

health leech seeds Size
 

comments (0)

Main Menu