Action

Drangon Ball{ViN}

  • Download 5x Faster
  • Download torrent
  • Direct Download
  • Rate this torrent +  |  -
Drangon Ball{ViN}

Free and Direct Download with Usenet.nl 300GB+ free


Torrent info

Name:Drangon Ball{ViN}

Total Size: 209.19 MB

Magnet: Magnet Link

Seeds: 0

Leechers: 0

Stream: Watch Online @ Movie4u

Last Updated: 2010-11-10 00:49:10 (Update Now)

Torrent added: 2009-09-16 09:36:04





Torrent Files List


Drangon Ball.mp4 (Size: 209.19 MB) (Files: 1)

 Drangon Ball.mp4

209.19 MB
 

Announce URL: http://www.h33t.com:3310/announce

Torrent description

[size=7][color=red]Please Seed After Download To Keep The Release Alive!!
[/color][/size]
Drangon Ball{ViN} preview 0

Format : MPEG-4
Format profile : Sony PSP
Codec ID : MSNV
File size : 209 MiB
Duration : 1h 25mn
Overall bit rate : 343 Kbps
Encoded date : UTC 1970-01-01 00:00:00
Tagged date : UTC 1970-01-01 00:00:00

Video
ID : 1
Format : MPEG-4 Visual
Format profile : [email protected]
Format settings, BVOP : No
Format settings, QPel : No
Format settings, GMC : No warppoints
Format settings, Matrix : Default (H.263)
Codec ID : 20
Duration : 1h 25mn
Bit rate mode : Variable
Bit rate : 256 Kbps
Width : 320 pixels
Height : 240 pixels
Display aspect ratio : 4:3
Frame rate mode : Variable
Frame rate : 23.976 fps
Minimum frame rate : 14.985 fps
Maximum frame rate : 29.970 fps
Resolution : 24 bits
Colorimetry : 4:2:0
Scan type : Progressive
Bits/(Pixel*Frame) : 0.139
Stream size : 156 MiB (75%)
Writing library : Lavc52.11.0
Encoded date : UTC 1970-01-01 00:00:00
Tagged date : UTC 1970-01-01 00:00:00

Audio
ID : 2
Format : AAC
Format/Info : Advanced Audio Codec
Format version : Version 4
Format profile : LC
Format settings, SBR : Yes
Format settings, PS : No
Codec ID : 40
Duration : 1h 25mn
Bit rate mode : Constant
Bit rate : 82.7 Kbps
Nominal bit rate : 128 Kbps
Channel(s) : 2 channels
Channel positions : L R
Sampling rate : 48.0 KHz
Resolution : 16 bits
Stream size : 50.5 MiB (24%)
Encoded date : UTC 1970-01-01 00:00:00
Tagged date : UTC 1970-01-01 00:00:00
***********Releaser: ViN**************

[size=7][color=red]Please Seed After Download To Keep The Release Alive!!
[/color][/size]

related torrents

Torrent name

health leech seeds Size

Drangon Ball Z

0 0 19.07 GB 0
 

comments (0)

Main Menu