Horror

Extratorrent com ROOM 6 DVDRiP XViD SB0

  • Download 5x Faster
  • Download torrent
  • Direct Download
  • Rate this torrent +  |  -
Extratorrent com ROOM 6 DVDRiP XViD SB0

Anonymous and Free Direct Download 300GB+


Torrent info

Name:Extratorrent com ROOM 6 DVDRiP XViD SB0

Total Size: 700.90 MB

Magnet: Magnet Link

Seeds: 0

Leechers: 0

Stream: Watch Online @ Movie4u

Last Updated: 2011-09-15 21:14:34 (Update Now)

Torrent added: 2009-09-16 08:34:33



VPN For Torrents

Torrent Files List


Room 6 DVDRiP XViD SB0.avi (Size: 700.90 MB) (Files: 2)

 Room 6 DVDRiP XViD SB0.avi

700.90 MB

 room 6 DVDRiP XViD SB0.nfo

4.70 KB
 

Announce URL:

Torrent description

Room 6 DVDRiP XViD SB0
General
Complete name : Room 6 DVDRiP XViD SB0.avi
Format : AVI
Format/Info : Audio Video Interleave
File size : 701 MiB
Duration : 1h 33mn
Overall bit rate : 1 046 Kbps
Writing application : VirtualDubMod 1.5.4.1 (build 2178/release)
Writing library : VirtualDubMod build 2178/release

Video
Format : MPEG-4 Visual
Format profile : Streaming [email protected]
Format settings, BVOP : Yes
Format settings, QPel : No
Format settings, GMC : No warppoints
Format settings, Matrix : Custom
Codec ID : XVID
Codec ID/Hint : XviD
Duration : 1h 33mn
Bit rate : 932 Kbps
Width : 640 pixels
Height : 368 pixels
Display aspect ratio : 16/9
Frame rate : 23.976 fps
Resolution : 24 bits
Colorimetry : 4:2:0
Scan type : Progressive
Bits/(Pixel*Frame) : 0.165
Stream size : 624 MiB (89%)
Writing library : XviD 1.2.1

Audio
Format : MPEG Audio
Format version : Version 1
Format profile : Layer 3
Codec ID : 55
Codec ID/Hint : MP3
Duration : 1h 33mn
Bit rate mode : Variable
Bit rate : 102 Kbps
Nominal bit rate : 112 Kbps
Channel(s) : 2 channels
Sampling rate : 44.1 KHz
Resolution : 16 bits
Stream size : 68.3 MiB (10%)
Alignment : Aligned on interleaves
Interleave, duration : 26 ms (0.63 video frame)
Interleave, preload duration : 187 ms
Writing library : LAME3.98r
Encoding settings : -m j -V 4 -q 2 -lowpass 15.6 --abr 112


--------------------------------------------------------------------------------
Cast:
Christine Taylor... Amy Roberts
Jerry O'Connell ... Lucas Dylan
Shane Brolly ... Nick
Chloe Moretz ... Melissa Norman (as Chloe Grace Moretz)
Ellie Cornell ... Sarah
Jimmy Shubert ... Bob
Lisa Ann Walter ... Sgt. Burch
Marshall Bell ... Amy's Dad
John Billingsley... Harrison McKendrick
Jack Riley ... James Brewster
Andy Davoli ... Belial
Marisa Blanchard... Young Amy (as Marissa Blanchard)


Plot:
A young woman's world is turned upside down after a tragic accident steals away her boyfriend. The walls of reality continue to crumble as the troubled woman and a fellow victim try to track down their loved ones at a mysterious hospital which should not exist.

Screenshots:
Extratorrent com ROOM 6 DVDRiP XViD SB0 preview 0
Extratorrent com ROOM 6 DVDRiP XViD SB0 preview 1
Extratorrent com ROOM 6 DVDRiP XViD SB0 preview 2


More info and releases in www.ExtraTorrent.com

related torrents

Torrent name

health leech seeds Size
 


comments (0)

Main Menu