Other

Australian Idol Aussie TVRip 13 09 2009 XviD

  • Download 5x Faster
  • Download torrent
  • Direct Download
  • Rate this torrent +  |  -
Australian Idol Aussie TVRip 13 09 2009 XviD

Free and Direct Download with Usenet 300GB+ free


Torrent info

Name:Australian Idol Aussie TVRip 13 09 2009 XviD

Total Size: 1.17 GB

Magnet: Magnet Link

Seeds: 1

Leechers: 0

Stream: Watch Online @ Movie4u

Last Updated: 2010-05-04 18:38:40 (Update Now)

Torrent added: 2009-09-15 19:36:58




Torrent Files List


Australian Idol - 13-09-2009.avi (Size: 1.17 GB) (Files: 9)

 Australian Idol - 13-09-2009.avi

1.17 GB

 poster.png

289.25 KB

 02.jpg

38.76 KB

 05.jpg

38.59 KB

 01.jpg

30.96 KB

 04.jpg

29.14 KB

 07.jpg

24.53 KB

 06.jpg

24.52 KB

 03.jpg

23.83 KB
 

Announce URL: http://greekadiko.biz:2710/478418be713dd5994677be540b1fcb34/announce

Torrent description

Australian Idol   Aussie TVRip   13 09 2009   XviD preview 0



The most wanted Australian Show!
T[color=blue]oday's subject: Rock Music![/color]
[color=red]Special Guest Star: Suzi Quatro![/color] :-O





General
Complete name : Australian Idol - 13-09-2009.avi
Format : AVI
Format/Info : Audio Video Interleave
File size : 1.17 GiB
Duration : 1h 37mn
Overall bit rate : 1 720 Kbps
Writing application : VirtualDubMod 1.5.4.1 (build 2178/release)
Writing library : VirtualDubMod build 2178/release

Video
ID : 0
Format : MPEG-4 Visual
Format profile : Streaming [email protected]
Format settings, BVOP : Yes
Format settings, QPel : No
Format settings, GMC : No warppoints
Format settings, Matrix : Default (H.263)
Muxing mode : Packed bitstream
Codec ID : XVID
Codec ID/Hint : XviD
Duration : 1h 37mn
Bit rate : 1 520 Kbps
Width : 720 pixels
Height : 400 pixels
Display aspect ratio : 16/9
Frame rate : 25.000 fps
Resolution : 24 bits
Colorimetry : 4:2:0
Scan type : Progressive
Bits/(Pixel*Frame) : 0.211
Stream size : 1.04 GiB (88%)
Writing library : XviD 1.2.1 (UTC 2008-12-04)

Audio
ID : 1
Format : MPEG Audio
Format version : Version 1
Format profile : Layer 3
Codec ID : 55
Codec ID/Hint : MP3
Duration : 1h 37mn
Bit rate mode : Constant
Bit rate : 192 Kbps
Channel(s) : 2 channels
Sampling rate : 44.1 KHz
Resolution : 16 bits
Stream size : 134 MiB (11%)
Alignment : Split accross interleaves
Interleave, duration : 80 ms (2.00 video frames)
Interleave, preload duration : 500 ms






Screenshots:

Australian Idol   Aussie TVRip   13 09 2009   XviD preview 1
Australian Idol   Aussie TVRip   13 09 2009   XviD preview 2
Australian Idol   Aussie TVRip   13 09 2009   XviD preview 3
Australian Idol   Aussie TVRip   13 09 2009   XviD preview 4
Australian Idol   Aussie TVRip   13 09 2009   XviD preview 5
Australian Idol   Aussie TVRip   13 09 2009   XviD preview 6

related torrents

Torrent name

health leech seeds Size
 

comments (0)

Main Menu