Classic

Turina Piano Quartet Quintet Sextet Menuhin Festival PQ

  • Download 5x Faster
  • Download torrent
  • Direct Download
  • Rate this torrent +  |  -
Turina Piano Quartet Quintet Sextet Menuhin Festival PQ

Anonymous and Direct Download 300GB+ free


Torrent info

Name:Turina Piano Quartet Quintet Sextet Menuhin Festival PQ

Total Size: 421.23 MB

Magnet: Magnet Link

Seeds: 0

Leechers: 0

Stream: Watch Online @ Movie4u

Last Updated: 2011-02-16 10:33:36 (Update Now)

Torrent added: 2008-08-26 12:56:42




Torrent Files List


CDImage (flac).cue (Size: 421.23 MB) (Files: 24)

 CDImage (flac).cue

1.51 KB

 CDImage (wav).cue

1.51 KB

 CDImage.flac

204.01 MB

 EAC.log

2.21 KB

 Read me.txt

0.39 KB

 Scans

  Booklet 001.png

13.62 MB

  Booklet 002.png

13.90 MB

  Booklet 003.png

12.14 MB

  Booklet 004.png

11.95 MB

  Booklet 005.png

13.73 MB

  Booklet 006.png

11.89 MB

  Booklet 007.png

12.10 MB

  Booklet 008.png

11.99 MB

  Booklet 009.png

13.38 MB

  Booklet 010.png

11.80 MB

  Booklet 011.png

12.01 MB

  Booklet 012.png

12.00 MB

  Booklet 013.png

10.72 MB

  Booklet 014.png

11.83 MB

  Booklet 015.png

12.04 MB

  Booklet 016.png

11.95 MB

  Disc.png

10.13 MB

  Tray.png

10.03 MB

 Torrent downloaded from Demonoid.com.txt

0.05 KB
 

Announce URL:

Torrent description

JOAQUÍN TURINA (1882-1949)

PIANO QUARTET, OP. 67
1. Lento
2. Vivo
3. Andante
PIANO QUINTET, OP. 1
4. Fugue lente
5. Animé
6. Andante scherzando
7. Finale
with Christine Busch, Violin
PIANO SEXTET, OP. 7, "SCÈNE ANDALOUSE" FOR VIOLA SOLO, PIANO AND STRING QUARTET
8. Crépuscule du soir
9. A la fenétre
Paul Coletti, Viola solo with Christine Busch, Violin, and Anna Barbara Duetschler, Viola
MENUHIN FESTIVAL PIANO QUARTET
Friedemann Rieger, Piano
Nora Chastain, Violin
Paul Coletti, Viola
Francis Gouton, Cello
Recorded at Tonstudio van Geest, Sandhausen, 25 28 May, 1993
This recording was produced with the kind assistance of the Fundación Granada para la Müsica

Exact Audio Copy V0.99 prebeta 4 from 23. January 2008

EAC extraction logfile from 19. August 2008, 13:55

Menuhin Festival Piano Quartet / Joaquin Turina – Piano Quartet, Piano Quintet, Piano Sextet

Used drive : HL-DT-STDVD-ROM GDR8163B Adapter: 1 ID: 1

Read mode : Secure
Utilize accurate stream : Yes
Defeat audio cache : Yes
Make use of C2 pointers : No

Read offset correction : 102
Overread into Lead-In and Lead-Out : No
Fill up missing offset samples with silence : Yes
Delete leading and trailing silent blocks : No
Null samples used in CRC calculations : Yes
Used interface : Installed external ASPI interface

Used output format : Internal WAV Routines
Sample format : 44.100 Hz; 16 Bit; Stereo


TOC of the extracted CD

Track | Start | Length | Start sector | End sector
---------------------------------------------------------
1 | 0:00.25 | 5:38.10 | 25 | 25384
2 | 5:38.35 | 3:03.00 | 25385 | 39109
3 | 8:41.35 | 6:35.65 | 39110 | 68799
4 | 15:17.25 | 7:38.10 | 68800 | 103159
5 | 22:55.35 | 8:14.00 | 103160 | 140209
6 | 31:09.35 | 6:08.00 | 140210 | 167809
7 | 37:17.35 | 6:08.65 | 167810 | 195474
8 | 43:26.25 | 5:39.10 | 195475 | 220909
9 | 49:05.35 | 5:15.70 | 220910 | 244604


Range status and errors

Selected range

Filename D:\Classical\Turina Piano Quartet-Quintet-Sextet - Menuhin Festival PQ\CDImage.wav

Peak level 100.0 %
Range quality 100.0 %
Test CRC 67EFFDBC
Copy CRC 67EFFDBC
Copy OK

No errors occurred


AccurateRip summary

Track 1 not present in database
Track 2 not present in database
Track 3 not present in database
Track 4 not present in database
Track 5 not present in database
Track 6 not present in database
Track 7 not present in database
Track 8 not present in database
Track 9 not present in database

None of the tracks are present in the AccurateRip database

End of status report

related torrents

Torrent name

health leech seeds Size
 


comments (0)

Main Menu