Other

Shanghai Noon [2000] 1264x704 HD Mp4 H264 AAC 5 1 ch 3Li

  • Download 5x Faster
  • Download torrent
  • Direct Download
  • Rate this torrent +  |  -
Shanghai Noon [2000] 1264x704 HD Mp4 H264 AAC 5 1 ch 3Li

Free and Direct Download with Usenet 300GB+ free


Torrent info

Name:Shanghai Noon [2000] 1264x704 HD Mp4 H264 AAC 5 1 ch 3Li

Total Size: 1.43 GB

Magnet: Magnet Link

Seeds: 0

Leechers: 0

Stream: Watch Online @ Movie4u

Last Updated: 2015-09-26 09:01:21 (Update Now)

Torrent added: 2009-09-15 09:33:20




Torrent Files List


Shanghai Noon.mp4 (Size: 1.43 GB) (Files: 9)

 Shanghai Noon.mp4

1.43 GB

 Shanghai Noon[14-57-45].JPG

104.57 KB

 Shanghai Noon[14-59-20].JPG

70.53 KB

 Shanghai Noon[15-01-03].JPG

63.33 KB

 Shanghai Noon[15-01-46].JPG

59.33 KB

 Shanghai Noon[15-01-35].JPG

59.14 KB

 Shanghai Noon.mp4.txt

6.15 KB

 Torrent downloaded from Demonoid.com.txt

0.05 KB

 tracked_by_h33t_com.txt

0.02 KB
 

tracker

leech seeds
 

Torrent description

General
Complete name : Shanghai Noon.mp4
Format : MPEG-4
Format profile : Base Media
Codec ID : isom
File size : 1.43 GiB
Duration : 1h 50mn
Overall bit rate : 1 854 Kbps
Encoded date : UTC 2009-09-11 19:10:46
Tagged date : UTC 2009-09-11 19:10:46

Video
ID : 1
Format : AVC
Format/Info : Advanced Video Codec
Format profile : [email protected]
Format settings, CABAC : Yes
Format settings, ReFrames : 3 frames
Codec ID : avc1
Codec ID/Info : Advanced Video Coding
Duration : 1h 50mn
Bit rate mode : Variable
Bit rate : 1 660 Kbps
Nominal bit rate : 1 675 Kbps
Maximum bit rate : 8 143 Kbps
Width : 1 264 pixels
Height : 704 pixels
Display aspect ratio : 16:9
Frame rate mode : Constant
Frame rate : 23.976 fps
Resolution : 24 bits
Colorimetry : 4:2:0
Scan type : Progressive
Bits/(Pixel*Frame) : 0.078
Stream size : 1.28 GiB (90%)
Writing library : x264 core 68

Audio
ID : 2
Format : AAC
Format/Info : Advanced Audio Codec
Format version : Version 4
Format profile : LC
Format settings, SBR : No
Codec ID : 40
Duration : 1h 50mn
Bit rate mode : Variable
Bit rate : 192 Kbps
Maximum bit rate : 286 Kbps
Channel(s) : 6 channels
Channel positions : Front: L C R, Rear: L R, LFE
Sampling rate : 48.0 KHz
Resolution : 16 bits
Stream size : 150 MiB (10%)
Encoded date : UTC 2009-09-11 19:12:20
Tagged date : UTC 2009-09-11 19:12:39

related torrents

Torrent name

health leech seeds Size
 

comments (0)

Main Menu