Action

District 9 R5 Xvid [Kingdom Released]

  • Download 5x Faster
  • Download torrent
  • Direct Download
  • Rate this torrent +  |  -
District 9 R5 Xvid [Kingdom Released]

Free and Direct Download with Usenet.nl 300GB+ free


Torrent info

Name:District 9 R5 Xvid [Kingdom Released]

Total Size: 931.21 KB

Magnet: Magnet Link

Seeds: 0

Leechers: 0

Stream: Watch Online @ Movie4u

Last Updated: 2010-12-02 22:28:38 (Update Now)

Torrent added: 2009-09-14 20:38:03





Torrent Files List


District 9 [2009] R5 XVID H624 AAC-SecretMyth (Kingdom-Release).torrent (Size: 931.21 KB) (Files: 1)

 District 9 [2009] R5 XVID H624 AAC-SecretMyth (Kingdom-Release).torrent

931.21 KB
 

Announce URL: http://tracker.openbittorrent.com:80/announce

Torrent description

due to copyright restrictions.


the last copy of this torrent was deleted


i am sharing this torrent for seeding


please Download and Seed more before it gets deleted again


have fun downloading and enjoy


Release Title: District 9 2009
DVD Release Date: TBA
Certification: Rated R for bloody violence and pervasive language.
Film Length: 1:47:44
------------------------------------------------------------
Tagline: You are not welcome here.
------------------------------------------------------------



Storyline:
------------------------------------------------------------

In 1990, a massive star ship bearing a bedraggled alien population, nicknamed "The Prawns," appeared over Johannesburg, South Africa. Twenty years later, the initial welcome by the human population has faded. The refugee camp where the aliens were located has deteriorated into a militarized ghetto called District 9, where they are confined and exploited in squalor. In 2010, the munitions corporation, Multi-National United, is contracted to forcibly evict the population with operative Wikus van der Merwe in charge. In this operation, Wikus is exposed to a strange alien chemical and must rely on the help of his only two new 'Prawn' friends.

------------------------------------------------------------
Cast:
------------------------------------------------------------

Sharlto Copley ... Wikus Van De Merwe
Jason Cope ... Grey Bradnam - UKNR Chief Correspondent
Nathalie Boltt ... Sarah Livingstone - Sociologist
Sylvaine Strike ... Dr Katrina McKenzie
Elizabeth Mkandawie ... Interviewee
John Sumner ... Les Feldman - MIL Engineer
William Allen Young ... Dirk Michaels
Greg Melvill-Smith ... Interviewer
Nick Blake ... Francois Moraneu - CIV Engineer Team
Morena Busa Sesatsa ... Interviewee
Themba Nkosi ... Interviewee
Mzwandile Nqoba ... Interviewee
Barry Strydom ... Interviewee
Jed Brophy ... James Hope - Police Officer
Louis Minnaar ... Piet Smit

------------------------------------------------------------
Genre: Action | Drama | Sci-Fi | Thriller
Language: English
Original Source: DVD 9 Noir
Size of MP4 file: 1.1 GB (1,183,800,060 bytes)
-------------------------------------------------------------

Format : AVI
Format/Info : Audio Video Interleave
File size : 1.38 GiB
Duration : 1h 44mn
Overall bit rate : 1 880 Kbps
Writing library : TMPGEnc 4.0 XPress Version. 4.7.1.284
Original source form : MAX TORRENTZ
Copyright : SIGISMUNT

-------------------------------------------------------------
Video
Format : MPEG-4 Visual
Format profile : Streaming [email protected]
Format settings, BVOP : Yes
Format settings, QPel : No
Format settings, GMC : No warppoints
Format settings, Matrix : Custom
Muxing mode : Packed bitstream
Codec ID : XVID
Codec ID/Hint : XviD
Duration : 1h 44mn
Bit rate : 1 712 Kbps
Width : 704 pixels
Height : 384 pixels
Display aspect ratio : 16/9
Frame rate : 30.000 fps
Resolution : 24 bits
Colorimetry : 4:2:0
Scan type : Progressive
Bits/(Pixel*Frame) : 0.211
Stream size : 1.25 GiB (91%)
Writing library : XviD 1.2.1 (UTC 2008-12-04)

-------------------------------------------------------------
Audio
Format : MPEG Audio
Format version : Version 1
Format profile : Layer 3
Codec ID : 55
Codec ID/Hint : MP3
Duration : 1h 44mn
Bit rate mode : Constant
Bit rate : 160 Kbps
Channel(s) : 2 channels
Sampling rate : 48.0 KHz
Resolution : 16 bits
Stream size : 120 MiB (9%)
Alignment : Split accross interleaves
Interleave, duration : 250 ms (7.50 video frames)
Interleave, preload duration : 212 ms


related torrents

Torrent name

health leech seeds Size
 

comments (0)

Main Menu