TV - Other

Darna Mon091409 PHILIPPINES tvrip (TAGALOG) [tukmol101]

  • Download 5x Faster
  • Download torrent
  • Direct Download
  • Rate this torrent +  |  -
Darna Mon091409 PHILIPPINES tvrip (TAGALOG) [tukmol101]

Anonymous and Direct Download 300GB+ free


Torrent info

Name:Darna Mon091409 PHILIPPINES tvrip (TAGALOG) [tukmol101]

Total Size: 271.07 MB

Magnet: Magnet Link

Seeds: 0

Leechers: 0

Stream: Watch Online @ Movie4u

Last Updated: 2010-01-31 13:05:43 (Update Now)

Torrent added: 2009-09-14 16:39:34




Torrent Files List


Darna.avi (Size: 271.07 MB) (Files: 4)

 Darna.avi

259.93 MB

 sample.avi

11.13 MB

 Read Me.nfo

0.48 KB

 Torrent downloaded from Demonoid.com.txt

0.05 KB
 

Announce URL: http://inferno.demonoid.com:3390/announce

Torrent description

with sample and please read nfo
General
Complete name : Darna.avi
Format : AVI
Format/Info : Audio Video Interleave
File size : 260 MiB
Duration : 29mn 7s
Overall bit rate : 1 247 Kbps
Writing application : VirtualDubMod 1.5.4.1 (build 2178/release)
Writing library : VirtualDub build 32593/release

Video
ID : 0
Format : MPEG-4 Visual
Format profile : [email protected]
Format settings, BVOP : Yes
Format settings, QPel : No
Format settings, GMC : No warppoints
Format settings, Matrix : Default (H.263)
Muxing mode : Packed bitstream
Codec ID : XVID
Codec ID/Hint : XviD
Duration : 29mn 7s
Bit rate : 1 132 Kbps
Width : 512 pixels
Height : 384 pixels
Display aspect ratio : 4:3
Frame rate : 29.970 fps
Resolution : 24 bits
Colorimetry : 4:2:0
Scan type : Progressive
Bits/(Pixel*Frame) : 0.192
Stream size : 236 MiB (91%)
Writing library : XviD 1.2.1 (UTC 2008-12-04)

Audio
ID : 1
Format : MPEG Audio
Format version : Version 1
Format profile : Layer 3
Codec ID : 55
Codec ID/Hint : MP3
Duration : 29mn 7s
Bit rate mode : Variable
Bit rate : 101 Kbps
Channel(s) : 2 channels
Sampling rate : 48.0 KHz
Resolution : 16 bits
Stream size : 21.0 MiB (8%)
Alignment : Aligned on interleaves
Interleave, duration : 24 ms (0.72 video frame)
Interleave, preload duration : 501 ms

related torrents

Torrent name

health leech seeds Size
 


comments (0)

Main Menu