TV - Other

15 CZAS HONORU avi

  • Download 5x Faster
  • Download torrent
  • Direct Download
  • Rate this torrent +  |  -
15 CZAS HONORU avi

Anonymous and Free Direct Download 300GB+


Torrent info

Name:15 CZAS HONORU avi

Total Size: 350.34 MB

Magnet: Magnet Link

Seeds: 2

Leechers: 1

Stream: Watch Online @ Movie4u

Last Updated: 2010-12-23 10:46:25 (Update Now)

Torrent added: 2009-09-14 12:46:12



VPN For Torrents

Torrent Files List


15.CZAS HONORU.avi (Size: 350.34 MB) (Files: 1)

 15.CZAS HONORU.avi

350.34 MB
 

Announce URL: http://tracker.prq.to/announce

Torrent description


15.CZAS HONORU.avi S02E02
Format : AVI
Format/Info : Audio Video Interleave
File size : 350 MiB
Duration : 47mn 20s
Overall bit rate : 1 035 Kbps

Video
ID : 0
Format : MPEG-4 Visual
Format profile : [email protected]
Format settings, BVOP : No
Format settings, QPel : No
Format settings, GMC : No warppoints
Format settings, Matrix : Default (H.263)
Codec ID : XVID
Codec ID/Hint : XviD
Duration : 47mn 20s
Bit rate : 832 Kbps
Width : 720 pixels
Height : 576 pixels
Display aspect ratio : 16/9
Frame rate : 25.000 fps
Standard : PAL
Resolution : 24 bits
Colorimetry : 4:2:0
Scan type : Progressive
Bits/(Pixel*Frame) : 0.080
Stream size : 282 MiB (80%)
Writing library : XviD 1.1.2 (UTC 2006-11-01)

Audio
ID : 1
Format : AC-3
Format/Info : Audio Coding 3
Codec ID : 2000
Duration : 47mn 20s
Bit rate mode : Constant
Bit rate : 192 Kbps
Channel(s) : 2 channels
Channel positions : L R
Sampling rate : 48.0 KHz
Stream size : 65.0 MiB (19%)
Alignment : Aligned on interleaves
Interleave, duration : 32 ms (0.80 video frame)
Interleave, preload duration : 512 ms

related torrents

Torrent name

health leech seeds Size

16 CZAS HONORU avi

1 0 350.17 MB 0
 


comments (0)

Main Menu