Drama

New Town Killers [2008] FS DVDRip XviD GFW

  • Download 5x Faster
  • Download torrent
  • Direct Download
  • Rate this torrent +  |  -
New Town Killers [2008] FS DVDRip XviD GFW

Anonymous and Direct Download 300GB+ free


Torrent info

Name:New Town Killers [2008] FS DVDRip XviD GFW

Total Size: 713.36 MB

Magnet: Magnet Link

Seeds: 1

Leechers: 0

Stream: Watch Online @ Movie4u

Last Updated: 2010-12-27 01:25:19 (Update Now)

Torrent added: 2009-09-14 10:33:45




Torrent Files List


gfw-ntk-sample.avi (Size: 713.36 MB) (Files: 2)

 gfw-ntk-sample.avi

15.64 MB

 New Town Killers [2008] FS DVDRip XviD-GFW.rar

697.72 MB
 

Announce URL: http://genesis.1337x.org:1337/announce

Torrent description

New Town Killers [2008] FS DVDRip XviD-GFW


General
Complete name : New Town Killers [2008] FS DVDRip XviD-GFW
Format : AVI
Format/Info : Audio Video Interleave
File size : 699 MiB
Duration : 1h 36mn
Overall bit rate : 1 016 Kbps
Writing application : VirtualDubMod 1.5.10.2 (build 2540/release)
Writing library : VirtualDubMod build 2540/release

Video
Format : MPEG-4 Visual
Format profile : [email protected]
Format settings, BVOP : Yes
Format settings, QPel : No
Format settings, GMC : No warppoints
Format settings, Matrix : Default
Muxing mode : Packed bitstream
Codec ID : XVID
Codec ID/Hint : XviD
Duration : 1h 36mn
Bit rate : 873 Kbps
Width : 512 pixels
Height : 384 pixels
Display aspect ratio : 4/3
Frame rate : 23.976 fps
Resolution : 24 bits
Colorimetry : 4:2:0
Scan type : Progressive
Bits/(Pixel*Frame) : 0.185
Stream size : 601 MiB (86%)
Writing library : XviD 1.0.3 (UTC 2004-12-20)

Audio
Format : MPEG Audio
Format version : Version 1
Format profile : Layer 3
Codec ID : 55
Codec ID/Hint : MP3
Duration : 1h 36mn
Bit rate mode : Variable
Bit rate : 130 Kbps
Nominal bit rate : 128 Kbps
Channel(s) : 2 channels
Sampling rate : 48.0 KHz
Resolution : 16 bits
Stream size : 89.5 MiB (13%)
Alignment : Aligned on interleaves
Interleave, duration : 24 ms (0.58 video frame)
Interleave, preload duration : 460 ms
Writing library : LAME3.90.
Encoding settings : ABR


Dougray Scott ... Alistair Raskolnikov
Alastair Mackenzie ... Jamie Stewart
James Anthony Pearson ... Sean Macdonald
Liz White ... Alice Kelly
Charles Mnene ... Sam





Two private bankers, Alistair and Jamie, who have the world at their feet get their kicks from playing a 12 hour game of hunt, hide and seek with people from the margins of society. Their next target is Sean Macdonald a parentless teenager who lives with his sister on a housing estate on the outskirts of Edinburgh. She's in debt, he's going nowhere fast. Sean agrees to play for cash. He soon realises he's walked into twelve hours of hell where survival is the name of the game.

related torrents

Torrent name

health leech seeds Size
 


comments (0)

Main Menu