Comedy

Looking For Comedy In The Muslim World [2005] Limited DVDRip xVID LRC

  • Download 5x Faster
  • Download torrent
  • Direct Download
  • Rate this torrent +  |  -

Torrent info

Name:Looking For Comedy In The Muslim World [2005] Limited DVDRip xVID LRC

Total Size: 712.92 MB

Magnet: Magnet Link

Seeds: 0

Leechers: 0

Stream: Watch Full Movie @ Movie4u

Last Updated: 2017-05-26 17:33:36 (Update Now)

Torrent added: 2009-09-14 09:35:22



VPN For Torrents

Torrent Files List


Looking For Comedy In The Muslim World [2005] Limited DVDRip xVID-LRC.rar (Size: 712.92 MB) (Files: 2)

 Looking For Comedy In The Muslim World [2005] Limited DVDRip xVID-LRC.rar

698.93 MB

 muslim.lrc.sample.avi

13.99 MB
 

Announce URL:

Torrent description

Looking For Comedy In The Muslim World [2005] Limited DVDRip xVID-LRC




General
Complete name : Looking For Comedy In The Muslim World [2005] Limited DVDRip xVID-LRC
Format : AVI
Format/Info : Audio Video Interleave
File size : 698 MiB
Duration : 1h 38mn
Overall bit rate : 993 Kbps
Writing library : VirtualDub build 0/release

Video
Format : MPEG-4 Visual
Format profile : Streaming [email protected]
Format settings, BVOP : Yes
Format settings, QPel : No
Format settings, GMC : No warppoints
Format settings, Matrix : Default
Codec ID : XVID
Codec ID/Hint : XviD
Duration : 1h 38mn
Bit rate : 849 Kbps
Width : 640 pixels
Height : 352 pixels
Display aspect ratio : 16/9
Frame rate : 23.976 fps
Resolution : 24 bits
Colorimetry : 4:2:0
Scan type : Progressive
Bits/(Pixel*Frame) : 0.157
Stream size : 597 MiB (86%)
Writing library : XviD 1.2.0SMP (UTC 2006-01-08)

Audio
Format : MPEG Audio
Format version : Version 1
Format profile : Layer 3
Codec ID : 55
Codec ID/Hint : MP3
Duration : 1h 38mn
Bit rate mode : Variable
Bit rate : 131 Kbps
Minimum bit rate : 128 Kbps
Channel(s) : 2 channels
Sampling rate : 48.0 KHz
Resolution : 16 bits
Stream size : 92.2 MiB (13%)
Alignment : Aligned on interleaves
Interleave, duration : 24 ms (0.58 video frame)
Interleave, preload duration : 457 ms
Writing library : LAME3.96r
Encoding settings : ABR



Albert Brooks ... Albert Brooks
Sheetal Sheth ... Maya
Fred Dalton Thompson ... Sen. Fred Dalton Thompson
Penny Marshall ... Penny Marshall
Victoria Burrows ... Casting Director
Paul Jerome ... Studio Executive (as Paul Eric Jerome)




To improve its relations with Muslim countries, the United States government sends comedian Albert Brooks to south Asia to write a report on what makes followers of Islam laugh.

related torrents

Torrent name

health leech seeds Size
 


comments (0)

Main Menu

 

script data-cfasync="false" src="//d2ghscazvn398x.cloudfront.net/?cshgd=690275">