Horror

Hellraiser 8 2005 Xvid[

  • Download 5x Faster
  • Download torrent
  • Direct Download
  • Rate this torrent +  |  -
Hellraiser 8 2005 Xvid[

Free and Direct Download with Usenet.nl 300GB+ free


Torrent info

Name:Hellraiser 8 2005 Xvid[

Total Size: 699.11 MB

Magnet: Magnet Link

Seeds: 6

Leechers: 2

Stream: Watch Online @ Movie4u

Last Updated: 2010-11-23 21:57:48 (Update Now)

Torrent added: 2009-09-14 07:36:19





Torrent Files List


Hellraiser - Part 8 - Hellworld.r25 (Size: 699.11 MB) (Files: 51)

 Hellraiser - Part 8 - Hellworld.r25

14.31 MB

 Hellraiser - Part 8 - Hellworld.r01

14.31 MB

 Hellraiser - Part 8 - Hellworld.r02

14.31 MB

 Hellraiser - Part 8 - Hellworld.r03

14.31 MB

 Hellraiser - Part 8 - Hellworld.r04

14.31 MB

 Hellraiser - Part 8 - Hellworld.r05

14.31 MB

 Hellraiser - Part 8 - Hellworld.r06

14.31 MB

 Hellraiser - Part 8 - Hellworld.r07

14.31 MB

 Hellraiser - Part 8 - Hellworld.r08

14.31 MB

 Hellraiser - Part 8 - Hellworld.r09

14.31 MB

 Hellraiser - Part 8 - Hellworld.r10

14.31 MB

 Hellraiser - Part 8 - Hellworld.r11

14.31 MB

 Hellraiser - Part 8 - Hellworld.r12

14.31 MB

 Hellraiser - Part 8 - Hellworld.r13

14.31 MB

 Hellraiser - Part 8 - Hellworld.r14

14.31 MB

 Hellraiser - Part 8 - Hellworld.r15

14.31 MB

 Hellraiser - Part 8 - Hellworld.r16

14.31 MB

 Hellraiser - Part 8 - Hellworld.r17

14.31 MB

 Hellraiser - Part 8 - Hellworld.r18

14.31 MB

 Hellraiser - Part 8 - Hellworld.r19

14.31 MB

 Hellraiser - Part 8 - Hellworld.r20

14.31 MB

 Hellraiser - Part 8 - Hellworld.r21

14.31 MB

 Hellraiser - Part 8 - Hellworld.r22

14.31 MB

 Hellraiser - Part 8 - Hellworld.r23

14.31 MB

 Hellraiser - Part 8 - Hellworld.r24

14.31 MB

 Hellraiser - Part 8 - Hellworld.r00

14.31 MB

 Hellraiser - Part 8 - Hellworld.r26

14.31 MB

 Hellraiser - Part 8 - Hellworld.r27

14.31 MB

 Hellraiser - Part 8 - Hellworld.r28

14.31 MB

 Hellraiser - Part 8 - Hellworld.r29

14.31 MB

 Hellraiser - Part 8 - Hellworld.r30

14.31 MB

 Hellraiser - Part 8 - Hellworld.r31

14.31 MB

 Hellraiser - Part 8 - Hellworld.r32

14.31 MB

 Hellraiser - Part 8 - Hellworld.r33

14.31 MB

 Hellraiser - Part 8 - Hellworld.r34

14.31 MB

 Hellraiser - Part 8 - Hellworld.r35

14.31 MB

 Hellraiser - Part 8 - Hellworld.r36

14.31 MB

 Hellraiser - Part 8 - Hellworld.r37

14.31 MB

 Hellraiser - Part 8 - Hellworld.r38

14.31 MB

 Hellraiser - Part 8 - Hellworld.r39

14.31 MB

 Hellraiser - Part 8 - Hellworld.r40

14.31 MB

 Hellraiser - Part 8 - Hellworld.r41

14.31 MB

 Hellraiser - Part 8 - Hellworld.r42

14.31 MB

 Hellraiser - Part 8 - Hellworld.r43

14.31 MB

 Hellraiser - Part 8 - Hellworld.r44

14.31 MB

 Hellraiser - Part 8 - Hellworld.r45

14.31 MB

 Hellraiser - Part 8 - Hellworld.r46

14.31 MB

 Hellraiser - Part 8 - Hellworld.rar

14.31 MB

 Hellraiser - Part 8 - Hellworld.r47

12.46 MB

 Hellraiser - Part 8 - Hellworld.SFV

5.82 KB

 hellraiser8.nfo

2.35 KB
 

Announce URL: http://tracker.ilovetorrents.com/announce.php

Torrent description

Hellraiser is a British horror franchise that consists of eight films, a series of comic books, as well as merchandise based on the series. The franchise is based on the novella The Hellbound Heart by Clive Barker, who would go on to write and direct the adaptation of his story, titled Hellraiser. The films, as well as the comic book series, continually features the Cenobite Pinhead. The series’ storyline focuses on a puzzle box that opens a gateway to another dimension, where the Cenobites come forth to take whomever opened the box back to their world, delivering an eternity of torture. Although Clive Barker wrote the original story, as well as wrote and directed the first film, he has not written or directed any of the succeeding sequels.

General
Complete name : E:\Torrent\Hellraiser - All 8 Movies\Hellraiser 8\Hellraiser - Part 8 - Hellworld.avi
Format : AVI
Format/Info : Audio Video Interleave
File size : 699 MiB
Duration : 1h 30mn
Overall bit rate : 1 075 Kbps
Writing application : VirtualDubMod 1.5.4.1 (build 2117/release)
Writing library : VirtualDubMod build 2117/release

Video
ID : 0
Format : MPEG-4 Visual
Format profile : [email protected]
Format settings, BVOP : Yes
Format settings, QPel : No
Format settings, GMC : No warppoints
Format settings, Matrix : Default (MPEG)
Muxing mode : Packed bitstream
Codec ID : XVID
Codec ID/Hint : XviD
Duration : 1h 30mn
Bit rate : 938 Kbps
Width : 576 pixels
Height : 320 pixels
Display aspect ratio : 16:9
Frame rate : 23.976 fps
Resolution : 24 bits
Colorimetry : 4:2:0
Scan type : Progressive
Bits/(Pixel*Frame) : 0.212
Stream size : 610 MiB (87%)
Writing library : XviD 1.0.2 (UTC 2004-08-29)

Audio
ID : 1
Format : MPEG Audio
Format version : Version 1
Format profile : Layer 3
Codec ID : 55
Codec ID/Hint : MP3
Duration : 1h 30mn
Bit rate mode : Constant
Bit rate : 128 Kbps
Channel(s) : 2 channels
Sampling rate : 48.0 KHz
Resolution : 16 bits
Stream size : 83.2 MiB (12%)
Alignment : Aligned on interleaves
Interleave, duration : 42 ms (1.00 video frame)
Interleave, preload duration : 504 ms
Writing library : LAME3.96r
Encoding settings : -m j -V 4 -q 2 -lowpass 17.5 -b 128


Link: http://www.imdb.com/title/tt0354623/

related torrents

Torrent name

health leech seeds Size

Hellraiser 7 2005 Xvid[

2 10 700.75 MB 0
 

comments (0)

Main Menu