Horror

Hellraiser 7 2005 Xvid[

  • Download 5x Faster
  • Download torrent
  • Direct Download
  • Rate this torrent +  |  -
Hellraiser 7 2005 Xvid[

Free and Direct Download with Usenet.nl 300GB+ free


Torrent info

Name:Hellraiser 7 2005 Xvid[

Total Size: 700.75 MB

Magnet: Magnet Link

Seeds: 10

Leechers: 2

Stream: Watch Online @ Movie4u

Last Updated: 2010-12-26 02:03:31 (Update Now)

Torrent added: 2009-09-14 07:36:18





Torrent Files List


Hellraiser - Part 7 - Deader.r25 (Size: 700.75 MB) (Files: 51)

 Hellraiser - Part 7 - Deader.r25

14.31 MB

 Hellraiser - Part 7 - Deader.r01

14.31 MB

 Hellraiser - Part 7 - Deader.r02

14.31 MB

 Hellraiser - Part 7 - Deader.r03

14.31 MB

 Hellraiser - Part 7 - Deader.r04

14.31 MB

 Hellraiser - Part 7 - Deader.r05

14.31 MB

 Hellraiser - Part 7 - Deader.r06

14.31 MB

 Hellraiser - Part 7 - Deader.r07

14.31 MB

 Hellraiser - Part 7 - Deader.r08

14.31 MB

 Hellraiser - Part 7 - Deader.r09

14.31 MB

 Hellraiser - Part 7 - Deader.r10

14.31 MB

 Hellraiser - Part 7 - Deader.r11

14.31 MB

 Hellraiser - Part 7 - Deader.r12

14.31 MB

 Hellraiser - Part 7 - Deader.r13

14.31 MB

 Hellraiser - Part 7 - Deader.r14

14.31 MB

 Hellraiser - Part 7 - Deader.r15

14.31 MB

 Hellraiser - Part 7 - Deader.r16

14.31 MB

 Hellraiser - Part 7 - Deader.r17

14.31 MB

 Hellraiser - Part 7 - Deader.r18

14.31 MB

 Hellraiser - Part 7 - Deader.r19

14.31 MB

 Hellraiser - Part 7 - Deader.r20

14.31 MB

 Hellraiser - Part 7 - Deader.r21

14.31 MB

 Hellraiser - Part 7 - Deader.r22

14.31 MB

 Hellraiser - Part 7 - Deader.r23

14.31 MB

 Hellraiser - Part 7 - Deader.r24

14.31 MB

 Hellraiser - Part 7 - Deader.r00

14.31 MB

 Hellraiser - Part 7 - Deader.r26

14.31 MB

 Hellraiser - Part 7 - Deader.r27

14.31 MB

 Hellraiser - Part 7 - Deader.r28

14.31 MB

 Hellraiser - Part 7 - Deader.r29

14.31 MB

 Hellraiser - Part 7 - Deader.r30

14.31 MB

 Hellraiser - Part 7 - Deader.r31

14.31 MB

 Hellraiser - Part 7 - Deader.r32

14.31 MB

 Hellraiser - Part 7 - Deader.r33

14.31 MB

 Hellraiser - Part 7 - Deader.r34

14.31 MB

 Hellraiser - Part 7 - Deader.r35

14.31 MB

 Hellraiser - Part 7 - Deader.r36

14.31 MB

 Hellraiser - Part 7 - Deader.r37

14.31 MB

 Hellraiser - Part 7 - Deader.r38

14.31 MB

 Hellraiser - Part 7 - Deader.r39

14.31 MB

 Hellraiser - Part 7 - Deader.r40

14.31 MB

 Hellraiser - Part 7 - Deader.r41

14.31 MB

 Hellraiser - Part 7 - Deader.r42

14.31 MB

 Hellraiser - Part 7 - Deader.r43

14.31 MB

 Hellraiser - Part 7 - Deader.r44

14.31 MB

 Hellraiser - Part 7 - Deader.r45

14.31 MB

 Hellraiser - Part 7 - Deader.r46

14.31 MB

 Hellraiser - Part 7 - Deader.rar

14.31 MB

 Hellraiser - Part 7 - Deader.r47

14.10 MB

 Hellraiser - Part 7 - Deader.SFV

5.53 KB

 hellraiser7.nfo

2.09 KB
 

Announce URL: http://tracker.ilovetorrents.com/announce.php

Torrent description

Hellraiser is a British horror franchise that consists of eight films, a series of comic books, as well as merchandise based on the series. The franchise is based on the novella The Hellbound Heart by Clive Barker, who would go on to write and direct the adaptation of his story, titled Hellraiser. The films, as well as the comic book series, continually features the Cenobite Pinhead. The series’ storyline focuses on a puzzle box that opens a gateway to another dimension, where the Cenobites come forth to take whomever opened the box back to their world, delivering an eternity of torture. Although Clive Barker wrote the original story, as well as wrote and directed the first film, he has not written or directed any of the succeeding sequels.

General
Complete name : E:\Torrent\Hellraiser - All 8 Movies\Hellraiser 7\Hellraiser - Part 7 - Deader.avi
Format : AVI
Format/Info : Audio Video Interleave
File size : 701 MiB
Duration : 1h 28mn
Overall bit rate : 1 109 Kbps
Writing application : Nandub v1.0rc2
Writing library : Nandub build 1852/release

Video
ID : 0
Format : MPEG-4 Visual
Format profile : [email protected]
Format settings, BVOP : Yes
Format settings, QPel : No
Format settings, GMC : No warppoints
Format settings, Matrix : Default (MPEG)
Codec ID : XVID
Codec ID/Hint : XviD
Duration : 1h 28mn
Bit rate : 654 Kbps
Width : 624 pixels
Height : 336 pixels
Display aspect ratio : 1.857
Frame rate : 23.976 fps
Resolution : 24 bits
Colorimetry : 4:2:0
Scan type : Progressive
Bits/(Pixel*Frame) : 0.130
Stream size : 413 MiB (59%)
Writing library : XviD 1.1.0 Beta2 (UTC 2005-04-04)

Audio
ID : 1
Format : AC-3
Format/Info : Audio Coding 3
Codec ID : 2000
Duration : 1h 28mn
Bit rate mode : Constant
Bit rate : 448 Kbps
Channel(s) : 6 channels
Channel positions : Front: L C R, Surround: L R, LFE
Sampling rate : 48.0 KHz
Stream size : 283 MiB (40%)
Alignment : Aligned on interleaves
Interleave, duration : 96 ms (2.30 video frames)
Interleave, preload duration : 96 ms


Link: http://www.imdb.com/title/tt0337636/

related torrents

Torrent name

health leech seeds Size

Hellraiser 8 2005 Xvid[

2 6 699.11 MB 0
 

comments (0)

Main Menu