Horror

Hellraiser 6 2002 Xvid[

  • Download 5x Faster
  • Download torrent
  • Direct Download
  • Rate this torrent +  |  -
Hellraiser 6 2002 Xvid[

Anonymous and free Direct Download 300GB+


Torrent info

Name:Hellraiser 6 2002 Xvid[

Total Size: 696.82 MB

Magnet: Magnet Link

Seeds: 5

Leechers: 2

Stream: Watch Online @ Movie4u

Last Updated: 2010-08-02 10:11:19 (Update Now)

Torrent added: 2009-09-14 07:36:17



VPN For Torrents

Torrent Files List


Hellraiser - Part 6 - Hellseeker.r25 (Size: 696.82 MB) (Files: 51)

 Hellraiser - Part 6 - Hellseeker.r25

14.31 MB

 Hellraiser - Part 6 - Hellseeker.r01

14.31 MB

 Hellraiser - Part 6 - Hellseeker.r02

14.31 MB

 Hellraiser - Part 6 - Hellseeker.r03

14.31 MB

 Hellraiser - Part 6 - Hellseeker.r04

14.31 MB

 Hellraiser - Part 6 - Hellseeker.r05

14.31 MB

 Hellraiser - Part 6 - Hellseeker.r06

14.31 MB

 Hellraiser - Part 6 - Hellseeker.r07

14.31 MB

 Hellraiser - Part 6 - Hellseeker.r08

14.31 MB

 Hellraiser - Part 6 - Hellseeker.r09

14.31 MB

 Hellraiser - Part 6 - Hellseeker.r10

14.31 MB

 Hellraiser - Part 6 - Hellseeker.r11

14.31 MB

 Hellraiser - Part 6 - Hellseeker.r12

14.31 MB

 Hellraiser - Part 6 - Hellseeker.r13

14.31 MB

 Hellraiser - Part 6 - Hellseeker.r14

14.31 MB

 Hellraiser - Part 6 - Hellseeker.r15

14.31 MB

 Hellraiser - Part 6 - Hellseeker.r16

14.31 MB

 Hellraiser - Part 6 - Hellseeker.r17

14.31 MB

 Hellraiser - Part 6 - Hellseeker.r18

14.31 MB

 Hellraiser - Part 6 - Hellseeker.r19

14.31 MB

 Hellraiser - Part 6 - Hellseeker.r20

14.31 MB

 Hellraiser - Part 6 - Hellseeker.r21

14.31 MB

 Hellraiser - Part 6 - Hellseeker.r22

14.31 MB

 Hellraiser - Part 6 - Hellseeker.r23

14.31 MB

 Hellraiser - Part 6 - Hellseeker.r24

14.31 MB

 Hellraiser - Part 6 - Hellseeker.r00

14.31 MB

 Hellraiser - Part 6 - Hellseeker.r26

14.31 MB

 Hellraiser - Part 6 - Hellseeker.r27

14.31 MB

 Hellraiser - Part 6 - Hellseeker.r28

14.31 MB

 Hellraiser - Part 6 - Hellseeker.r29

14.31 MB

 Hellraiser - Part 6 - Hellseeker.r30

14.31 MB

 Hellraiser - Part 6 - Hellseeker.r31

14.31 MB

 Hellraiser - Part 6 - Hellseeker.r32

14.31 MB

 Hellraiser - Part 6 - Hellseeker.r33

14.31 MB

 Hellraiser - Part 6 - Hellseeker.r34

14.31 MB

 Hellraiser - Part 6 - Hellseeker.r35

14.31 MB

 Hellraiser - Part 6 - Hellseeker.r36

14.31 MB

 Hellraiser - Part 6 - Hellseeker.r37

14.31 MB

 Hellraiser - Part 6 - Hellseeker.r38

14.31 MB

 Hellraiser - Part 6 - Hellseeker.r39

14.31 MB

 Hellraiser - Part 6 - Hellseeker.r40

14.31 MB

 Hellraiser - Part 6 - Hellseeker.r41

14.31 MB

 Hellraiser - Part 6 - Hellseeker.r42

14.31 MB

 Hellraiser - Part 6 - Hellseeker.r43

14.31 MB

 Hellraiser - Part 6 - Hellseeker.r44

14.31 MB

 Hellraiser - Part 6 - Hellseeker.r45

14.31 MB

 Hellraiser - Part 6 - Hellseeker.r46

14.31 MB

 Hellraiser - Part 6 - Hellseeker.rar

14.31 MB

 Hellraiser - Part 6 - Hellseeker.r47

10.16 MB

 Hellraiser - Part 6 - Hellseeker.SFV

5.91 KB

 hellraiser6.nfo

1.78 KB
 

Announce URL: http://tracker.ilovetorrents.com/announce.php

Torrent description

Hellraiser is a British horror franchise that consists of eight films, a series of comic books, as well as merchandise based on the series. The franchise is based on the novella The Hellbound Heart by Clive Barker, who would go on to write and direct the adaptation of his story, titled Hellraiser. The films, as well as the comic book series, continually features the Cenobite Pinhead. The series’ storyline focuses on a puzzle box that opens a gateway to another dimension, where the Cenobites come forth to take whomever opened the box back to their world, delivering an eternity of torture. Although Clive Barker wrote the original story, as well as wrote and directed the first film, he has not written or directed any of the succeeding sequels.


General
Complete name : E:\Torrent\Hellraiser - All 8 Movies\Hellraiser 6\Hellraiser - Part 6 - Hellseeker.avi
Format : AVI
Format/Info : Audio Video Interleave
File size : 697 MiB
Duration : 1h 28mn
Overall bit rate : 1 097 Kbps
Writing application : Nandub v1.0rc2
Writing library : Nandub build 1852/release

Video
ID : 0
Format : MPEG-4 Visual
Codec ID : DIV3
Codec ID/Hint : DivX 3 Low
Duration : 1h 28mn
Bit rate : 925 Kbps
Width : 576 pixels
Height : 304 pixels
Display aspect ratio : 1.895
Frame rate : 23.976 fps
Resolution : 24 bits
Bits/(Pixel*Frame) : 0.220
Stream size : 588 MiB (84%)

Audio
ID : 1
Format : MPEG Audio
Format version : Version 1
Format profile : Layer 3
Codec ID : 55
Codec ID/Hint : MP3
Duration : 1h 28mn
Bit rate mode : Variable
Bit rate : 160 Kbps
Channel(s) : 2 channels
Sampling rate : 48.0 KHz
Resolution : 16 bits
Stream size : 101 MiB (15%)
Alignment : Aligned on interleaves
Interleave, duration : 24 ms (0.58 video frame)
Interleave, preload duration : 463 ms


Link: http://www.imdb.com/title/tt0274546/

related torrents

Torrent name

health leech seeds Size
 


comments (0)

Main Menu