Horror

Hellraiser 5 2000 Xvid[

  • Download 5x Faster
  • Download torrent
  • Direct Download
  • Rate this torrent +  |  -
Hellraiser 5 2000 Xvid[

Anonymous and Free Direct Download


Torrent info

Name:Hellraiser 5 2000 Xvid[

Total Size: 701.99 MB

Magnet: Magnet Link

Seeds: 0

Leechers: 0

Stream: Watch Online @ Movie4u

Last Updated: 2014-10-29 21:20:38 (Update Now)

Torrent added: 2009-09-14 07:36:14



VPN For Torrents

Torrent Files List


Hellraiser - Part 5 - Inferno.r26 (Size: 701.99 MB) (Files: 52)

 Hellraiser - Part 5 - Inferno.r26

14.31 MB

 Hellraiser - Part 5 - Inferno.r01

14.31 MB

 Hellraiser - Part 5 - Inferno.r02

14.31 MB

 Hellraiser - Part 5 - Inferno.r03

14.31 MB

 Hellraiser - Part 5 - Inferno.r04

14.31 MB

 Hellraiser - Part 5 - Inferno.r05

14.31 MB

 Hellraiser - Part 5 - Inferno.r06

14.31 MB

 Hellraiser - Part 5 - Inferno.r07

14.31 MB

 Hellraiser - Part 5 - Inferno.r08

14.31 MB

 Hellraiser - Part 5 - Inferno.r09

14.31 MB

 Hellraiser - Part 5 - Inferno.r10

14.31 MB

 Hellraiser - Part 5 - Inferno.r11

14.31 MB

 Hellraiser - Part 5 - Inferno.r12

14.31 MB

 Hellraiser - Part 5 - Inferno.r13

14.31 MB

 Hellraiser - Part 5 - Inferno.r14

14.31 MB

 Hellraiser - Part 5 - Inferno.r15

14.31 MB

 Hellraiser - Part 5 - Inferno.r16

14.31 MB

 Hellraiser - Part 5 - Inferno.r17

14.31 MB

 Hellraiser - Part 5 - Inferno.r18

14.31 MB

 Hellraiser - Part 5 - Inferno.r19

14.31 MB

 Hellraiser - Part 5 - Inferno.r20

14.31 MB

 Hellraiser - Part 5 - Inferno.r21

14.31 MB

 Hellraiser - Part 5 - Inferno.r22

14.31 MB

 Hellraiser - Part 5 - Inferno.r23

14.31 MB

 Hellraiser - Part 5 - Inferno.r24

14.31 MB

 Hellraiser - Part 5 - Inferno.r25

14.31 MB

 Hellraiser - Part 5 - Inferno.r00

14.31 MB

 Hellraiser - Part 5 - Inferno.r27

14.31 MB

 Hellraiser - Part 5 - Inferno.r28

14.31 MB

 Hellraiser - Part 5 - Inferno.r29

14.31 MB

 Hellraiser - Part 5 - Inferno.r30

14.31 MB

 Hellraiser - Part 5 - Inferno.r31

14.31 MB

 Hellraiser - Part 5 - Inferno.r32

14.31 MB

 Hellraiser - Part 5 - Inferno.r33

14.31 MB

 Hellraiser - Part 5 - Inferno.r34

14.31 MB

 Hellraiser - Part 5 - Inferno.r35

14.31 MB

 Hellraiser - Part 5 - Inferno.r36

14.31 MB

 Hellraiser - Part 5 - Inferno.r37

14.31 MB

 Hellraiser - Part 5 - Inferno.r38

14.31 MB

 Hellraiser - Part 5 - Inferno.r39

14.31 MB

 Hellraiser - Part 5 - Inferno.r40

14.31 MB

 Hellraiser - Part 5 - Inferno.r41

14.31 MB

 Hellraiser - Part 5 - Inferno.r42

14.31 MB

 Hellraiser - Part 5 - Inferno.r43

14.31 MB

 Hellraiser - Part 5 - Inferno.r44

14.31 MB

 Hellraiser - Part 5 - Inferno.r45

14.31 MB

 Hellraiser - Part 5 - Inferno.r46

14.31 MB

 Hellraiser - Part 5 - Inferno.r47

14.31 MB

 Hellraiser - Part 5 - Inferno.rar

14.31 MB

 Hellraiser - Part 5 - Inferno.r48

1.03 MB

 Hellraiser - Part 5 - Inferno.SFV

5.74 KB

 hellraiser5.nfo

1.78 KB
 

Announce URL:

Torrent description

Hellraiser is a British horror franchise that consists of eight films, a series of comic books, as well as merchandise based on the series. The franchise is based on the novella The Hellbound Heart by Clive Barker, who would go on to write and direct the adaptation of his story, titled Hellraiser. The films, as well as the comic book series, continually features the Cenobite Pinhead. The series’ storyline focuses on a puzzle box that opens a gateway to another dimension, where the Cenobites come forth to take whomever opened the box back to their world, delivering an eternity of torture. Although Clive Barker wrote the original story, as well as wrote and directed the first film, he has not written or directed any of the succeeding sequels.

General
Complete name : E:\Torrent\Hellraiser - All 8 Movies\Hellraiser all 8 movies\Hellraiser - Part 5 - Inferno.avi
Format : AVI
Format/Info : Audio Video Interleave
File size : 702 MiB
Duration : 1h 36mn
Overall bit rate : 1 020 Kbps

Video
ID : 0
Format : MPEG-4 Visual
Codec ID : DIV3
Codec ID/Hint : DivX 3 Low
Duration : 1h 36mn
Bit rate : 899 Kbps
Width : 640 pixels
Height : 480 pixels
Display aspect ratio : 4:3
Frame rate : 25.000 fps
Resolution : 24 bits
Bits/(Pixel*Frame) : 0.117
Stream size : 618 MiB (88%)
Title : Hellraiser.V.Inferno.DivX-VcdVault.avi Video #1

Audio
ID : 1
Format : MPEG Audio
Format version : Version 1
Format profile : Layer 3
Codec ID : 55
Codec ID/Hint : MP3
Duration : 1h 36mn
Bit rate mode : Constant
Bit rate : 112 Kbps
Channel(s) : 2 channels
Sampling rate : 44.1 KHz
Resolution : 16 bits
Stream size : 76.9 MiB (11%)
Alignment : Split accross interleaves
Interleave, duration : 40 ms (1.00 video frame)
Title : Hellraiser.V.Inferno.DivX-VcdVault.avi Audio #1


Link: http://www.imdb.com/title/tt0229440/

related torrents

Torrent name

health leech seeds Size
 


comments (0)

Main Menu