Horror

Hellraiser 3 1992 Xvid[

  • Download 5x Faster
  • Download torrent
  • Direct Download
  • Rate this torrent +  |  -
Hellraiser 3 1992 Xvid[

Free and Direct Download with Usenet 300GB+ free


Torrent info

Name:Hellraiser 3 1992 Xvid[

Total Size: 597.37 MB

Magnet: Magnet Link

Seeds: 0

Leechers: 0

Stream: Watch Online @ Movie4u

Last Updated: 2012-12-14 19:25:29 (Update Now)

Torrent added: 2009-09-14 07:35:30




Torrent Files List


Hellraiser - Part 3 - Hell On Earth.r22 (Size: 597.37 MB) (Files: 44)

 Hellraiser - Part 3 - Hell On Earth.r22

14.31 MB

 Hellraiser - Part 3 - Hell On Earth.r01

14.31 MB

 Hellraiser - Part 3 - Hell On Earth.r02

14.31 MB

 Hellraiser - Part 3 - Hell On Earth.r03

14.31 MB

 Hellraiser - Part 3 - Hell On Earth.r04

14.31 MB

 Hellraiser - Part 3 - Hell On Earth.r05

14.31 MB

 Hellraiser - Part 3 - Hell On Earth.r06

14.31 MB

 Hellraiser - Part 3 - Hell On Earth.r07

14.31 MB

 Hellraiser - Part 3 - Hell On Earth.r08

14.31 MB

 Hellraiser - Part 3 - Hell On Earth.r09

14.31 MB

 Hellraiser - Part 3 - Hell On Earth.r10

14.31 MB

 Hellraiser - Part 3 - Hell On Earth.r11

14.31 MB

 Hellraiser - Part 3 - Hell On Earth.r12

14.31 MB

 Hellraiser - Part 3 - Hell On Earth.r13

14.31 MB

 Hellraiser - Part 3 - Hell On Earth.r14

14.31 MB

 Hellraiser - Part 3 - Hell On Earth.r15

14.31 MB

 Hellraiser - Part 3 - Hell On Earth.r16

14.31 MB

 Hellraiser - Part 3 - Hell On Earth.r17

14.31 MB

 Hellraiser - Part 3 - Hell On Earth.r18

14.31 MB

 Hellraiser - Part 3 - Hell On Earth.r19

14.31 MB

 Hellraiser - Part 3 - Hell On Earth.r20

14.31 MB

 Hellraiser - Part 3 - Hell On Earth.r21

14.31 MB

 Hellraiser - Part 3 - Hell On Earth.r00

14.31 MB

 Hellraiser - Part 3 - Hell On Earth.r23

14.31 MB

 Hellraiser - Part 3 - Hell On Earth.r24

14.31 MB

 Hellraiser - Part 3 - Hell On Earth.r25

14.31 MB

 Hellraiser - Part 3 - Hell On Earth.r26

14.31 MB

 Hellraiser - Part 3 - Hell On Earth.r27

14.31 MB

 Hellraiser - Part 3 - Hell On Earth.r28

14.31 MB

 Hellraiser - Part 3 - Hell On Earth.r29

14.31 MB

 Hellraiser - Part 3 - Hell On Earth.r30

14.31 MB

 Hellraiser - Part 3 - Hell On Earth.r31

14.31 MB

 Hellraiser - Part 3 - Hell On Earth.r32

14.31 MB

 Hellraiser - Part 3 - Hell On Earth.r33

14.31 MB

 Hellraiser - Part 3 - Hell On Earth.r34

14.31 MB

 Hellraiser - Part 3 - Hell On Earth.r35

14.31 MB

 Hellraiser - Part 3 - Hell On Earth.r36

14.31 MB

 Hellraiser - Part 3 - Hell On Earth.r37

14.31 MB

 Hellraiser - Part 3 - Hell On Earth.r38

14.31 MB

 Hellraiser - Part 3 - Hell On Earth.r39

14.31 MB

 Hellraiser - Part 3 - Hell On Earth.rar

14.31 MB

 Hellraiser - Part 3 - Hell On Earth.r40

10.86 MB

 Hellraiser - Part 3 - Hell On Earth.SFV

5.33 KB

 hellraiser3.nfo

1.64 KB
 

Announce URL:

Torrent description

Hellraiser is a British horror franchise that consists of eight films, a series of comic books, as well as merchandise based on the series. The franchise is based on the novella The Hellbound Heart by Clive Barker, who would go on to write and direct the adaptation of his story, titled Hellraiser. The films, as well as the comic book series, continually features the Cenobite Pinhead. The series’ storyline focuses on a puzzle box that opens a gateway to another dimension, where the Cenobites come forth to take whomever opened the box back to their world, delivering an eternity of torture. Although Clive Barker wrote the original story, as well as wrote and directed the first film, he has not written or directed any of the succeeding sequels.

General
Complete name : E:\Torrent\Hellraiser - All 8 Movies\Hellraiser 3\Hellraiser - Part 3 - Hell On Earth.avi
Format : AVI
Format/Info : Audio Video Interleave
File size : 597 MiB
Duration : 1h 33mn
Overall bit rate : 898 Kbps
Writing library : VirtualDub build 12667/release

Video
Format : div3
Codec ID : div3
Duration : 1h 33mn
Bit rate : 728 Kbps
Width : 512 pixels
Height : 384 pixels
Display aspect ratio : 4:3
Frame rate : 23.976 fps
Resolution : 24 bits
Bits/(Pixel*Frame) : 0.154
Stream size : 485 MiB (81%)

Audio
ID : 1
Format : MPEG Audio
Format version : Version 1
Format profile : Layer 3
Codec ID : 55
Codec ID/Hint : MP3
Duration : 1h 33mn
Bit rate mode : Constant
Bit rate : 160 Kbps
Channel(s) : 2 channels
Sampling rate : 48.0 KHz
Resolution : 16 bits
Stream size : 106 MiB (18%)
Alignment : Split accross interleaves
Interleave, duration : 42 ms (1.00 video frame)
Interleave, preload duration : 460 ms


Link: http://www.imdb.com/title/tt0104409/

related torrents

Torrent name

health leech seeds Size
 

comments (0)

Main Menu