Horror

Hellraiser 2 1988 XviD[

  • Download 5x Faster
  • Download torrent
  • Direct Download
  • Rate this torrent +  |  -
Hellraiser 2 1988 XviD[

Anonymous and Free Direct Download 300GB+


Torrent info

Name:Hellraiser 2 1988 XviD[

Total Size: 696.41 MB

Magnet: Magnet Link

Seeds: 6

Leechers: 2

Stream: Watch Online @ Movie4u

Last Updated: 0000-00-00 00:00:00 (Update Now)

Torrent added: 2009-09-14 07:35:26



VPN For Torrents

Torrent Files List


Hellraiser - Part 2 - Hellbound.r25 (Size: 696.41 MB) (Files: 51)

 Hellraiser - Part 2 - Hellbound.r25

14.31 MB

 Hellraiser - Part 2 - Hellbound.r01

14.31 MB

 Hellraiser - Part 2 - Hellbound.r02

14.31 MB

 Hellraiser - Part 2 - Hellbound.r03

14.31 MB

 Hellraiser - Part 2 - Hellbound.r04

14.31 MB

 Hellraiser - Part 2 - Hellbound.r05

14.31 MB

 Hellraiser - Part 2 - Hellbound.r06

14.31 MB

 Hellraiser - Part 2 - Hellbound.r07

14.31 MB

 Hellraiser - Part 2 - Hellbound.r08

14.31 MB

 Hellraiser - Part 2 - Hellbound.r09

14.31 MB

 Hellraiser - Part 2 - Hellbound.r10

14.31 MB

 Hellraiser - Part 2 - Hellbound.r11

14.31 MB

 Hellraiser - Part 2 - Hellbound.r12

14.31 MB

 Hellraiser - Part 2 - Hellbound.r13

14.31 MB

 Hellraiser - Part 2 - Hellbound.r14

14.31 MB

 Hellraiser - Part 2 - Hellbound.r15

14.31 MB

 Hellraiser - Part 2 - Hellbound.r16

14.31 MB

 Hellraiser - Part 2 - Hellbound.r17

14.31 MB

 Hellraiser - Part 2 - Hellbound.r18

14.31 MB

 Hellraiser - Part 2 - Hellbound.r19

14.31 MB

 Hellraiser - Part 2 - Hellbound.r20

14.31 MB

 Hellraiser - Part 2 - Hellbound.r21

14.31 MB

 Hellraiser - Part 2 - Hellbound.r22

14.31 MB

 Hellraiser - Part 2 - Hellbound.r23

14.31 MB

 Hellraiser - Part 2 - Hellbound.r24

14.31 MB

 Hellraiser - Part 2 - Hellbound.r00

14.31 MB

 Hellraiser - Part 2 - Hellbound.r26

14.31 MB

 Hellraiser - Part 2 - Hellbound.r27

14.31 MB

 Hellraiser - Part 2 - Hellbound.r28

14.31 MB

 Hellraiser - Part 2 - Hellbound.r29

14.31 MB

 Hellraiser - Part 2 - Hellbound.r30

14.31 MB

 Hellraiser - Part 2 - Hellbound.r31

14.31 MB

 Hellraiser - Part 2 - Hellbound.r32

14.31 MB

 Hellraiser - Part 2 - Hellbound.r33

14.31 MB

 Hellraiser - Part 2 - Hellbound.r34

14.31 MB

 Hellraiser - Part 2 - Hellbound.r35

14.31 MB

 Hellraiser - Part 2 - Hellbound.r36

14.31 MB

 Hellraiser - Part 2 - Hellbound.r37

14.31 MB

 Hellraiser - Part 2 - Hellbound.r38

14.31 MB

 Hellraiser - Part 2 - Hellbound.r39

14.31 MB

 Hellraiser - Part 2 - Hellbound.r40

14.31 MB

 Hellraiser - Part 2 - Hellbound.r41

14.31 MB

 Hellraiser - Part 2 - Hellbound.r42

14.31 MB

 Hellraiser - Part 2 - Hellbound.r43

14.31 MB

 Hellraiser - Part 2 - Hellbound.r44

14.31 MB

 Hellraiser - Part 2 - Hellbound.r45

14.31 MB

 Hellraiser - Part 2 - Hellbound.r46

14.31 MB

 Hellraiser - Part 2 - Hellbound.rar

14.31 MB

 Hellraiser - Part 2 - Hellbound.r47

9.75 MB

 Hellraiser - Part 2 - Hellbound.SFV

5.82 KB

 hellraiser2.nfo

2.10 KB
 

Announce URL: http://tracker.ilovetorrents.com/announce.php

Torrent description

Hellraiser is a 1980's horror film exploring the themes of pain as a source of pleasure and morality under duress and fear. It is based on the critically acclaimed novella The Hellbound Heart by Clive Barker, who also wrote the screenplay and directed the film. In the UK, the film is titled Clive Barker's Hellraiser. It is the first film in the Hellraiser series. Seven sequels followed with a remake of the first announced in 2007.[1] Hellraiser was number 19 on the cable channel Bravo's list of the 100 Scariest Movie Moments

General
Complete name : E:\Torrent\Hellraiser - All 8 Movies\Hellraiser 2\Hellraiser - Part 2 - Hellbound.avi
Format : AVI
Format/Info : Audio Video Interleave
File size : 696 MiB
Duration : 1h 31mn
Overall bit rate : 1 059 Kbps

Video
ID : 0
Format : MPEG-4 Visual
Format settings, BVOP : Yes
Format settings, QPel : No
Format settings, GMC : No warppoints
Format settings, Matrix : Default (H.263)
Muxing mode : Packed bitstream
Codec ID : DX50
Codec ID/Hint : DivX 5
Duration : 1h 31mn
Bit rate : 921 Kbps
Width : 640 pixels
Height : 352 pixels
Display aspect ratio : 16:9
Frame rate : 25.000 fps
Resolution : 24 bits
Colorimetry : 4:2:0
Scan type : Progressive
Bits/(Pixel*Frame) : 0.164
Stream size : 606 MiB (87%)
Writing library : DivX 5.1.1 (Maupiti) (UTC 2003-11-19)

Audio
ID : 1
Format : MPEG Audio
Format version : Version 1
Format profile : Layer 3
Codec ID : 55
Codec ID/Hint : MP3
Duration : 1h 31mn
Bit rate mode : Constant
Bit rate : 128 Kbps
Channel(s) : 2 channels
Sampling rate : 44.1 KHz
Resolution : 16 bits
Stream size : 84.2 MiB (12%)
Alignment : Split accross interleaves
Interleave, duration : 40 ms (1.00 video frame)
Interleave, preload duration : 500 ms
Writing library : LAME3.92


Link: http://www.imdb.com/title/tt0095294/

related torrents

Torrent name

health leech seeds Size
 


comments (0)

Main Menu