Horror

Hellraiser 1 1987 XviD[

  • Download 5x Faster
  • Download torrent
  • Direct Download
  • Rate this torrent +  |  -
Hellraiser 1 1987 XviD[

Anonymous and Free Direct Download


Torrent info

Name:Hellraiser 1 1987 XviD[

Total Size: 682.81 MB

Magnet: Magnet Link

Seeds: 7

Leechers: 1

Stream: Watch Online @ Movie4u

Last Updated: 2010-12-06 22:02:40 (Update Now)

Torrent added: 2009-09-14 07:35:17



VPN For Torrents

Torrent Files List


Hellraiser - Part 1.r25 (Size: 682.81 MB) (Files: 50)

 Hellraiser - Part 1.r25

14.31 MB

 Hellraiser - Part 1.r01

14.31 MB

 Hellraiser - Part 1.r02

14.31 MB

 Hellraiser - Part 1.r03

14.31 MB

 Hellraiser - Part 1.r04

14.31 MB

 Hellraiser - Part 1.r05

14.31 MB

 Hellraiser - Part 1.r06

14.31 MB

 Hellraiser - Part 1.r07

14.31 MB

 Hellraiser - Part 1.r08

14.31 MB

 Hellraiser - Part 1.r09

14.31 MB

 Hellraiser - Part 1.r10

14.31 MB

 Hellraiser - Part 1.r11

14.31 MB

 Hellraiser - Part 1.r12

14.31 MB

 Hellraiser - Part 1.r13

14.31 MB

 Hellraiser - Part 1.r14

14.31 MB

 Hellraiser - Part 1.r15

14.31 MB

 Hellraiser - Part 1.r16

14.31 MB

 Hellraiser - Part 1.r17

14.31 MB

 Hellraiser - Part 1.r18

14.31 MB

 Hellraiser - Part 1.r19

14.31 MB

 Hellraiser - Part 1.r20

14.31 MB

 Hellraiser - Part 1.r21

14.31 MB

 Hellraiser - Part 1.r22

14.31 MB

 Hellraiser - Part 1.r23

14.31 MB

 Hellraiser - Part 1.r24

14.31 MB

 Hellraiser - Part 1.r00

14.31 MB

 Hellraiser - Part 1.r26

14.31 MB

 Hellraiser - Part 1.r27

14.31 MB

 Hellraiser - Part 1.r28

14.31 MB

 Hellraiser - Part 1.r29

14.31 MB

 Hellraiser - Part 1.r30

14.31 MB

 Hellraiser - Part 1.r31

14.31 MB

 Hellraiser - Part 1.r32

14.31 MB

 Hellraiser - Part 1.r33

14.31 MB

 Hellraiser - Part 1.r34

14.31 MB

 Hellraiser - Part 1.r35

14.31 MB

 Hellraiser - Part 1.r36

14.31 MB

 Hellraiser - Part 1.r37

14.31 MB

 Hellraiser - Part 1.r38

14.31 MB

 Hellraiser - Part 1.r39

14.31 MB

 Hellraiser - Part 1.r40

14.31 MB

 Hellraiser - Part 1.r41

14.31 MB

 Hellraiser - Part 1.r42

14.31 MB

 Hellraiser - Part 1.r43

14.31 MB

 Hellraiser - Part 1.r44

14.31 MB

 Hellraiser - Part 1.r45

14.31 MB

 Hellraiser - Part 1.rar

14.31 MB

 Hellraiser - Part 1.r46

10.47 MB

 Hellraiser - Part 1.SFV

4.57 KB

 hellraiser1.nfo

1.72 KB
 

Announce URL: http://tracker.ilovetorrents.com/announce.php

Torrent description

Hellraiser is a 1987 horror film exploring the themes of pain as a source of pleasure and morality under duress and fear. It is based on the critically acclaimed novella The Hellbound Heart by Clive Barker, who also wrote the screenplay and directed the film. In the UK, the film is titled Clive Barker's Hellraiser. It is the first film in the Hellraiser series. Seven sequels followed with a remake of the first announced in 2007.[1] Hellraiser was number 19 on the cable channel Bravo's list of the 100 Scariest Movie Moments

Complete name : E:\Torrent\Hellraiser - All 8 Movies\Hellraiser 1\Hellraiser - Part 1.avi
Format : AVI
Format/Info : Audio Video Interleave
File size : 683 MiB
Duration : 1h 33mn
Overall bit rate : 1 022 Kbps

Video
ID : 0
Format : MPEG-4 Visual
Codec ID : DIV3
Codec ID/Hint : DivX 3 Low
Duration : 1h 33mn
Bit rate : 905 Kbps
Width : 608 pixels
Height : 432 pixels
Display aspect ratio : 1.407
Frame rate : 25.000 fps
Resolution : 24 bits
Bits/(Pixel*Frame) : 0.138
Stream size : 605 MiB (89%)
Title : Videostream

Audio
ID : 1
Format : MPEG Audio
Format version : Version 1
Format profile : Layer 3
Codec ID : 55
Codec ID/Hint : MP3
Duration : 1h 33mn
Bit rate mode : Constant
Bit rate : 112 Kbps
Channel(s) : 2 channels
Sampling rate : 48.0 KHz
Resolution : 16 bits
Stream size : 74.8 MiB (11%)
Alignment : Split accross interleaves
Interleave, duration : 1000 ms (25.00 video frames)
Title : Audiostream 1

Link: http://www.imdb.com/title/tt0093177/

related torrents

Torrent name

health leech seeds Size

hEllRAiSER 1987 xvid avi

2 4 699.98 MB 0
 


comments (0)

Main Menu