Horror

Hostel[2005]DVDrip[Eng]AC3[5 1] Atlas47

  • Download 5x Faster
  • Download torrent
  • Direct Download
  • Rate this torrent +  |  -
Hostel[2005]DVDrip[Eng]AC3[5 1] Atlas47

Free and Direct Download with Usenet.nl 300GB+ free


Torrent info

Name:Hostel[2005]DVDrip[Eng]AC3[5 1] Atlas47

Total Size: 1.37 GB

Magnet: Magnet Link

Seeds: 5

Leechers: 5

Stream: Watch Online @ Movie4u

Last Updated: 0000-00-00 00:00:00 (Update Now)

Torrent added: 2009-09-14 06:46:12





Torrent Files List


Covers (Size: 1.37 GB) (Files: 4)

 Covers

  Hostel.jpg

1.57 MB

 Hostel.avi

1.37 GB

 Hostel.nfo

10.14 KB

 Hostel.srt

49.68 KB
 

Announce URL: http://tracker.torrentbox.com:2710/announce

Torrent description


±±±±±±±±±±±±±±±±±±±±±±±±±±±±±±>>www.tornster.com<<±±±±±±±±±±±±±±±±±±±±±±±±±±±±±±
± ±
± INFO: ±
± ±
± General ±
± Complete name : Hostel ±
± Genre : Horror / Mystery / Thriller ±
± Format : AVI ±
± Format/Info : Audio Video Interleave ±
± File size : 1.37 GiB ±
± Duration : 1h 29mn ±
± Overall bit rate : 2 183 Kbps ±
± Writing application : VirtualDubMod 1.5.4.1 (build 2178/release)±
± Writing library : VirtualDubMod build 2178/release ±
± ±
± Video ±
± Format : MPEG-4 Visual ±
± Format settings, BVOP : Yes ±
± Format settings, QPel : No ±
± Format settings, GMC : No warppoints ±
± Format settings, Matrix : Default ±
± Codec ID : DX50 ±
± Codec ID/Hint : DivX 5 ±
± Duration : 1h 29mn ±
± Bit rate : 1 728 Kbps ±
± Width : 720 pixels ±
± Height : 304 pixels ±
± Display aspect ratio : 2.35 ±
± Frame rate : 25.000 fps ±
± Resolution : 24 bits ±
± Colorimetry : 4:2:0 ±
± Scan type : Progressive ±
± Bits/(Pixel*Frame) : 0.316 ±
± Stream size : 1.08 GiB (79%) ±
± Writing library : DivX 2816 ±
± ±
± Audio ±
± Format : AC-3 ±
± Format/Info : Audio Coding 3 ±
± Codec ID : 2000 ±
± Duration : 1h 29mn ±
± Bit rate mode : Constant ±
± Bit rate : 448 Kbps ±
± Channel(s) : 6 channels ±
± Channel positions : Front: L C R, Surround: L R, LFE ±
± Sampling rate : 48.0 KHz ±
± Stream size : 288 MiB (21%) ±
± Alignment : Split accross interleaves ±
± Interleave, duration : 80 ms (2.00 video frames) ±
± Interleave, preload duration : 500 ms ±
± Language : English ±
± Subtitles : English ±
± ±
± IMDb Rating : 5.7/10 ±
± IMDb URL : http://www.imdb.com/title/tt0450278/ ±
± ±
±°°°°°°°°°°°°°°°°°°°°°°°°°°°°°°°°°°°°°°°°°°°°°°°°°°°°°°°°°°°°°°°°°°°°°°°°°°°°°°±
± ±
± Presented by genre mastr Quentin Tarantino and writen & directed by Eli Roth,±
± Hostel is a dark, bloody exploration of torture and evil. The film centers ±
± on two young Americans backpacking through Europe who find themselves lured ±
± in as victims of a murder-for-profit business. ±
± ±
± ±
± ±
± ±
± ±
± ±
± ±
±°°°°°°°°°°°°°°°°°°°°°°°°°°°°°°°°°°°°°°°°°°°°°°°°°°°°°°°°°°°°°°°°°°°°°°°°°°°°°°±
± ±
± CAST: ±
± ±
± Jay Hernandez..............Paxton ±
± Derek Richardson...........Josh ±
± Eythor Gudjonsson..........Oli ±
± Babrara Nedeljakova........Natalya ±
± Jana Kaderabkova...........Svetlana ±
± Jennifer Lim...............Kana ±
± Keiko Seiko................Yuki ±
± ±
±°°°°°°°°°°°°°°°°°°°°°°°°°°°°°°°°°°°°°°°°°°°°°°°°°°°°°°°°°°°°°°°°°°°°°°°°°°°°°°±
± ±
± Please remember to seed ±
± ±
± Standalone Enabled ±
± ±
± www.tornster.com ±
± ±
±±±±±±±±±±±±±±±±±±±±±±±±±±±±±±±±±±±±±±±±±±±±±±±±±±±±±±±±±±±±±±±±±±±±±±±±±±±±±±±±

related torrents

Torrent name

health leech seeds Size
 

comments (0)

Main Menu