Drama

Ladies In Lavender DVDRiP XViD HLS

  • Download 5x Faster
  • Download torrent
  • Direct Download
  • Rate this torrent +  |  -
Ladies In Lavender DVDRiP XViD HLS

Free and Direct Download with Usenet.nl 300GB+ free


Torrent info

Name:Ladies In Lavender DVDRiP XViD HLS

Total Size: 1.38 GB

Magnet: Magnet Link

Seeds: 1

Leechers: 4

Stream: Watch Online @ Movie4u

Last Updated: 0000-00-00 00:00:00 (Update Now)

Torrent added: 2009-09-14 05:36:28





Torrent Files List


hls-lil-sample.avi (Size: 1.38 GB) (Files: 7)

 hls-lil-sample.avi

18.67 MB

 hls-lil.avi

696.42 MB

 hls-lil.nfo

10.17 KB

 INVITATION!!!.txt

8.74 KB

 Ladies In Lavender DVDRiP XViD-HLS.rar

696.68 MB

 Ladies in Lavender.jpg

33.68 KB

 Seedboxes!!!.txt

0.22 KB
 

Announce URL: http://genesis.1337x.org:1337/announce

Torrent description

Ladies In Lavender DVDRiP XViD-HLS




General
Complete name : Ladies In Lavender DVDRiP XViD-HLS
Format : AVI
Format/Info : Audio Video Interleave
File size : 696 MiB
Duration : 1h 39mn
Overall bit rate : 978 Kbps
Writing application : VirtualDubMod 1.5.10.1 (build 2439/release)
Writing library : VirtualDubMod build 2439/release

Video
Format : MPEG-4 Visual
Format profile : Streaming [email protected]
Format settings, BVOP : Yes
Format settings, QPel : No
Format settings, GMC : No warppoints
Format settings, Matrix : Default
Muxing mode : Packed bitstream
Codec ID : XVID
Codec ID/Hint : XviD
Duration : 1h 39mn
Bit rate : 844 Kbps
Width : 592 pixels
Height : 320 pixels
Display aspect ratio : 1.850
Frame rate : 25.000 fps
Resolution : 24 bits
Colorimetry : 4:2:0
Scan type : Progressive
Bits/(Pixel*Frame) : 0.178
Stream size : 601 MiB (86%)
Writing library : XviD 1.0.3 (UTC 2004-12-20)

Audio
Format : MPEG Audio
Format version : Version 1
Format profile : Layer 3
Codec ID : 55
Codec ID/Hint : MP3
Duration : 1h 39mn
Bit rate mode : Variable
Bit rate : 122 Kbps
Minimum bit rate : 128 Kbps
Channel(s) : 2 channels
Sampling rate : 48.0 KHz
Resolution : 16 bits
Stream size : 86.7 MiB (12%)
Alignment : Aligned on interleaves
Interleave, duration : 24 ms (0.60 video frame)
Interleave, preload duration : 526 ms
Writing library : LAME3.96r
Encoding settings : ABR


Judi Dench ... Ursula
Maggie Smith ... Janet
Daniel Brühl ... Andrea
Freddie Jones ... Jan Pendered
Gregor Henderson-Begg ... Luke Pendered
Miriam Margolyes ... Dorcas




Taking place in pre-war England, aging sisters Ursula and Janet live peacefully in their cottage on the shore of Cornwall. One morning following a violent storm, the sisters spot from their garden a nearly-drowned man lying on the beach. They nurse him back to health, and discover that he is Polish. Communicating in broken German while they teach him English, they learn his name is Andrea and that he is a particularly gifted violinist. His boat was on its way to America, where he is headed to look for a better life. It doesn't take long for them to become attached to Andrea, and they dote on him. Other townspeople, however, have their suspicions, especially when he befriends a German woman, Olga.

related torrents

Torrent name

health leech seeds Size
 

comments (0)

Main Menu