Other

A Prophet [2009] SUBBED DVDSCR XviD BeStDivX

  • Download 5x Faster
  • Download torrent
  • Direct Download
  • Rate this torrent +  |  -
A Prophet [2009] SUBBED DVDSCR XviD BeStDivX

Anonymous and Direct Download 300GB+ free


Torrent info

Name:A Prophet [2009] SUBBED DVDSCR XviD BeStDivX

Total Size: 1.37 GB

Magnet: Magnet Link

Seeds: 23

Leechers: 19

Stream: Watch Online @ Movie4u

Last Updated: 0000-00-00 00:00:00 (Update Now)

Torrent added: 2009-09-14 03:36:59




Torrent Files List


A Prophet [2009] SUBBED DVDSCR XviD-BeStDivX.rar (Size: 1.37 GB) (Files: 1)

 A Prophet [2009] SUBBED DVDSCR XviD-BeStDivX.rar

1.37 GB
 

Announce URL: http://genesis.1337x.org:1337/announce

Torrent description

A Prophet [2009] SUBBED DVDSCR XviD-BeStDivX




General
Complete name : A Prophet [2009] SUBBED DVDSCR XviD-BeStDivX
Format : AVI
CD : 2
Format/Info : Audio Video Interleave
File size : 1400 MiB
Duration : 2h 30mn
Overall bit rate : 1 322 Kbps
Writing application : VirtualDubMod 1.5.10.3 | www.virtualdub-fr.org || (build 2550/release)
Writing library : VirtualDubMod build 2550/release

Video
Format : MPEG-4 Visual
Format profile : Streaming [email protected]
Format settings, BVOP : Yes
Format settings, QPel : No
Format settings, GMC : No warppoints
Format settings, Matrix : Default
Codec ID : XVID
Codec ID/Hint : XviD
Duration : 2h 30mn
Bit rate : 1 056 Kbps
Width : 640 pixels
Height : 352 pixels
Display aspect ratio : 16/9
Frame rate : 25.000 fps
Resolution : 24 bits
Colorimetry : 4:2:0
Scan type : Progressive
Bits/(Pixel*Frame) : 0.187
Stream size : 559 MiB (80%)
Writing library : XviD 55

Audio
Format : AC-3
Format/Info : Audio Coding 3
Codec ID : 2000
Duration : 1h 14mn
Bit rate mode : Constant
Bit rate : 256 Kbps
Channel(s) : 2 channels
Channel positions : L R
Sampling rate : 48.0 KHz
Video delay : 100ms
Stream size : 136 MiB (19%)
Alignment : Split accross interleaves
Interleave, duration : 40 ms (1.00 video frame)
Interleave, preload duration : 500 ms


Tahar Rahim ... Malik El Djebena
Niels Arestrup ... César Luciani
Adel Bencherif ... Ryad
Hichem Yacoubi ... Reyeb
Reda Kateb ... Jordi
Jean-Philippe Ricci ... Vettori





A young Arab man is sent to a French prison where he becomes a mafia kingpin.

related torrents

Torrent name

health leech seeds Size
 


comments (0)

Main Menu