TV - Other

40 TERAZ ALBO NIGDY avi

  • Download 5x Faster
  • Download torrent
  • Direct Download
  • Rate this torrent +  |  -
40 TERAZ ALBO NIGDY avi

Anonymous and Free Direct Download 300GB+


Torrent info

Name:40 TERAZ ALBO NIGDY avi

Total Size: 350.00 MB

Magnet: Magnet Link

Seeds: 51

Leechers: 126

Stream: Watch Online @ Movie4u

Last Updated: 2010-07-23 15:30:16 (Update Now)

Torrent added: 2009-09-14 03:36:04



VPN For Torrents

Torrent Files List


40.TERAZ ALBO NIGDY.avi (Size: 350.00 MB) (Files: 1)

 40.TERAZ ALBO NIGDY.avi

350.00 MB
 

Announce URL: http://tracker.prq.to/announce

Torrent description

General
40.TERAZ ALBO NIGDY.avi
Format : AVI
Format/Info : Audio Video Interleave
File size : 350 MiB
Duration : 42mn 14s
Overall bit rate : 1 159 Kbps

Video
ID : 0
Format : MPEG-4 Visual
Format profile : [email protected]
Format settings, BVOP : No
Format settings, QPel : No
Format settings, GMC : No warppoints
Format settings, Matrix : Default (H.263)
Codec ID : XVID
Codec ID/Hint : XviD
Duration : 42mn 14s
Bit rate : 956 Kbps
Width : 720 pixels
Height : 576 pixels
Display aspect ratio : 16/9
Frame rate : 25.000 fps
Standard : PAL
Resolution : 24 bits
Colorimetry : 4:2:0
Scan type : Progressive
Bits/(Pixel*Frame) : 0.092
Stream size : 289 MiB (82%)
Writing library : XviD 1.1.2 (UTC 2006-11-01)

Audio
ID : 1
Format : AC-3
Format/Info : Audio Coding 3
Codec ID : 2000
Duration : 42mn 14s
Bit rate mode : Constant
Bit rate : 192 Kbps
Channel(s) : 2 channels
Channel positions : L R
Sampling rate : 48.0 KHz
Stream size : 58.0 MiB (17%)
Alignment : Aligned on interleaves
Interleave, duration : 32 ms (0.80 video frame)

related torrents

Torrent name

health leech seeds Size

Teraz albo nigdy s02e08

0 5 349.46 MB 0

37 TERAZ ALBO NIGDY avi

2 6 360.16 MB 0
 


comments (0)

Main Menu