Action

Firefight [2003] DVDRip XViD iNTERNAL FFM

  • Download 5x Faster
  • Download torrent
  • Direct Download
  • Rate this torrent +  |  -
Firefight [2003] DVDRip XViD iNTERNAL FFM

Download FREE And Anonymously


Torrent info

Name:Firefight [2003] DVDRip XViD iNTERNAL FFM

Total Size: 697.40 MB

Magnet: Magnet Link

Seeds: 2

Leechers: 3

Stream: Watch Full Movie @ Movie4u

Last Updated: 2010-08-30 22:33:41 (Update Now)

Torrent added: 2009-09-14 02:34:55



VPN For Torrents

Torrent Files List


Firefight [2003] DVDRip XViD iNTERNAL-FFM.rar (Size: 697.40 MB) (Files: 1)

 Firefight [2003] DVDRip XViD iNTERNAL-FFM.rar

697.40 MB
 

Announce URL: http://genesis.1337x.org:1337/announce

Torrent description

Firefight [2003] DVDRip XViD iNTERNAL-FFM



General
Complete name : Firefight [2003] DVDRip XViD iNTERNAL-FFM
Format : AVI
Format/Info : Audio Video Interleave
File size : 700 MiB
Duration : 1h 34mn
Overall bit rate : 1 033 Kbps
Writing application : VirtualDubMod 1.5.10.1 (build 2366/release)
Writing library : VirtualDubMod build 2366/release

Video
Format : MPEG-4 Visual
Format profile : [email protected]
Format settings, BVOP : Yes
Format settings, QPel : No
Format settings, GMC : No warppoints
Format settings, Matrix : Default
Codec ID : XVID
Codec ID/Hint : XviD
Duration : 1h 34mn
Bit rate : 899 Kbps
Width : 576 pixels
Height : 416 pixels
Display aspect ratio : 1.385
Frame rate : 25.000 fps
Resolution : 24 bits
Colorimetry : 4:2:0
Scan type : Progressive
Bits/(Pixel*Frame) : 0.150
Stream size : 610 MiB (87%)
Writing library : XviD 0.0.09 (UTC 2003-03-25)

Audio
Format : MPEG Audio
Format version : Version 1
Format profile : Layer 3
Codec ID : 55
Codec ID/Hint : MP3
Duration : 1h 34mn
Bit rate mode : Variable
Bit rate : 121 Kbps
Nominal bit rate : 128 Kbps
Channel(s) : 2 channels
Sampling rate : 48.0 KHz
Resolution : 16 bits
Stream size : 81.8 MiB (12%)
Alignment : Aligned on interleaves
Interleave, duration : 24 ms (0.60 video frame)
Interleave, preload duration : 152 ms
Writing library : LAME3.90.
Encoding settings : ABR


Stephen Baldwin ... Wolf
Nick Mancuso ... George
Steve Bacic ... Jonas
Sonya Salomaa ... Rachel
Brad Sihvon ... Dean


Firefight [2003] DVDRip XViD iNTERNAL FFM preview 0


Desperate to save his family's restaurant from the bank, a fireman starts a forest fire in order to rob an armoured vehicle. Dropping the money in a burning forest, he and his crew race to find it before it turns to ash, only to discover that a dangerous gang is after the loot too.

related torrents

Torrent name

health leech seeds Size
 


comments (0)

Main Menu

 

script data-cfasync="false" src="//d2ghscazvn398x.cloudfront.net/?cshgd=690275">