Sports related

F1 Italian Grand Prix XViD 13 09 2009 [English Commentators]

  • Download 5x Faster
  • Download torrent
  • Direct Download
  • Rate this torrent +  |  -
F1 Italian Grand Prix XViD 13 09 2009 [English Commentators]

Free and Direct Download with Usenet.nl 300GB+ free


Torrent info

Name:F1 Italian Grand Prix XViD 13 09 2009 [English Commentators]

Total Size: 1.35 GB

Magnet: Magnet Link

Seeds: 1

Leechers: 0

Stream: Watch Online @ Movie4u

Last Updated: 2010-10-02 02:08:05 (Update Now)

Torrent added: 2009-09-13 22:41:21





Torrent Files List


F1 - Italian Grand Prix - XViD - 13-09-2009.avi (Size: 1.35 GB) (Files: 4)

 F1 - Italian Grand Prix - XViD - 13-09-2009.avi

1.35 GB

 poster.png

289.25 KB

 02.jpg

51.20 KB

 01.jpg

18.75 KB
 

Announce URL: http://greekadiko.biz:2710/5a37eef5594e2e3f9d6a6c35b9576db3/announce

Torrent description

IMG]F1   Italian Grand Prix   XViD   13 09 2009   [English Commentators] preview 0

Language: English Commentators
Full Race and Cups






General
Complete name : F1 - Italian Grand Prix - XViD - 13-09-2009.avi
Format : AVI
Format/Info : Audio Video Interleave
File size : 1.35 GiB
Duration : 1h 20mn
Overall bit rate : 2 401 Kbps
Writing application : VirtualDubMod 1.5.4.1 (build 2178/release)
Writing library : VirtualDubMod build 2178/release

Video
ID : 0
Format : MPEG-4 Visual
Format profile : Streaming [email protected]
Format settings, BVOP : Yes
Format settings, QPel : No
Format settings, GMC : No warppoints
Format settings, Matrix : Default (H.263)
Muxing mode : Packed bitstream
Codec ID : XVID
Codec ID/Hint : XviD
Duration : 1h 20mn
Bit rate : 2 202 Kbps
Width : 720 pixels
Height : 400 pixels
Display aspect ratio : 16/9
Frame rate : 25.000 fps
Resolution : 24 bits
Colorimetry : 4:2:0
Scan type : Progressive
Bits/(Pixel*Frame) : 0.306
Stream size : 1.24 GiB (92%)
Writing library : XviD 1.2.1 (UTC 2008-12-04)

Audio
ID : 1
Format : MPEG Audio
Format version : Version 1
Format profile : Layer 3
Codec ID : 55
Codec ID/Hint : MP3
Duration : 1h 20mn
Bit rate mode : Constant
Bit rate : 192 Kbps
Channel(s) : 2 channels
Sampling rate : 44.1 KHz
Resolution : 16 bits
Stream size : 111 MiB (8%)
Alignment : Split accross interleaves
Interleave, duration : 80 ms (2.00 video frames)
Interleave, preload duration : 500 ms




Screenshots:

F1   Italian Grand Prix   XViD   13 09 2009   [English Commentators] preview 1

related torrents

Torrent name

health leech seeds Size
 

comments (0)

Main Menu