Other

HBO Assault in the Ring 2008 RNM mp4

  • Download 5x Faster
  • Download torrent
  • Direct Download
  • Rate this torrent +  |  -
HBO Assault in the Ring 2008 RNM mp4

Anonymous and Free Direct Download


Torrent info

Name:HBO Assault in the Ring 2008 RNM mp4

Total Size: 825.14 MB

Magnet: Magnet Link

Seeds: 1

Leechers: 0

Stream: Watch Online @ Movie4u

Last Updated: 2010-10-27 00:28:14 (Update Now)

Torrent added: 2009-09-13 22:38:57



VPN For Torrents

Torrent Files List


HBO Assault in the Ring 2008 RNM.mp4 (Size: 825.14 MB) (Files: 1)

 HBO Assault in the Ring 2008 RNM.mp4

825.14 MB
 

Announce URL: http://tracker.openbittorrent.com:80/announce

Torrent description

Format : MPEG-4
Format profile : Base Media
Codec ID : isom
File size : 825 MiB
Duration : 1h 23mn
Overall bit rate : 1 388 Kbps
Encoded date : UTC 2009-09-14 00:33:02
Tagged date : UTC 2009-09-14 00:33:02

Video
ID : 1
Format : AVC
Format/Info : Advanced Video Codec
Format profile : [email protected]
Format settings, CABAC : No
Format settings, ReFrames : 1 frame
Codec ID : avc1
Codec ID/Info : Advanced Video Coding
Duration : 1h 23mn
Bit rate mode : Variable
Bit rate : 1 231 Kbps
Width : 704 pixels
Height : 400 pixels
Display aspect ratio : 16/9
Frame rate mode : Constant
Frame rate : 30.000 fps
Resolution : 24 bits
Colorimetry : 4:2:0
Scan type : Progressive
Bits/(Pixel*Frame) : 0.146
Stream size : 732 MiB (89%)
Encoded date : UTC 2009-09-14 00:33:02
Tagged date : UTC 2009-09-14 00:33:02

Audio
ID : 2
Format : AAC
Format/Info : Advanced Audio Codec
Format version : Version 4
Format profile : LC
Format settings, SBR : No
Codec ID : 40
Duration : 1h 23mn
Bit rate mode : Variable
Bit rate : 152 Kbps
Channel(s) : 2 channels
Channel positions : L R
Sampling rate : 44.1 KHz
Resolution : 16 bits
Stream size : 90.2 MiB (11%)
Encoded date : UTC 2009-09-14 00:33:02
Tagged date : UTC 2009-09-14 00:33:02

related torrents

Torrent name

health leech seeds Size
 


comments (0)

Main Menu