TV - Other

Goin' Bulilit sun091309 PHILIPPINES tvrip (TAGALOG) [tukmol101]

  • Download 5x Faster
  • Download torrent
  • Direct Download
  • Rate this torrent +  |  -
Goin' Bulilit sun091309 PHILIPPINES tvrip (TAGALOG) [tukmol101]

Free and Direct Download with Usenet.nl 300GB+ free


Torrent info

Name:Goin' Bulilit sun091309 PHILIPPINES tvrip (TAGALOG) [tukmol101]

Total Size: 223.46 MB

Magnet: Magnet Link

Seeds: 0

Leechers: 0

Stream: Watch Online @ Movie4u

Last Updated: 2015-09-27 16:17:45 (Update Now)

Torrent added: 2009-09-13 17:37:27





Torrent Files List


Goin' Bulilit.avi (Size: 223.46 MB) (Files: 4)

 Goin' Bulilit.avi

214.62 MB

 sample.avi

8.84 MB

 Read Me.nfo

0.33 KB

 Torrent downloaded from Demonoid.com.txt

0.05 KB
 

tracker

leech seeds
 

Torrent description

Edgar Mortiz directs vibrant young comics in Goin' Bulilit, the No.1 children's sketch comedy show. GB is a spin off of Mortiz' highly successful 80s comedy sitcom Goin' Bananas. The sketch show has skits and gags where the kids hilariously parody some of the networks' top rating shows like The Buzz, Rated K and Gulong ng Palad.
Home Page
with sample
General
Complete name : Goin' Bulilit.avi
Format : AVI
Format/Info : Audio Video Interleave
File size : 215 MiB
Duration : 24mn 18s
Overall bit rate : 1 235 Kbps
Writing application : VirtualDubMod 1.5.4.1 (build 2178/release)
Writing library : VirtualDubMod build 2178/release

Video
ID : 0
Format : MPEG-4 Visual
Format profile : [email protected]
Format settings, BVOP : Yes
Format settings, QPel : No
Format settings, GMC : No warppoints
Format settings, Matrix : Default (H.263)
Muxing mode : Packed bitstream
Codec ID : XVID
Codec ID/Hint : XviD
Duration : 24mn 17s
Bit rate : 1 115 Kbps
Width : 608 pixels
Height : 464 pixels
Display aspect ratio : 4:3
Frame rate : 29.970 fps
Resolution : 24 bits
Colorimetry : 4:2:0
Scan type : Progressive
Bits/(Pixel*Frame) : 0.132
Stream size : 194 MiB (90%)
Writing library : XviD 1.2.1 (UTC 2008-12-04)

Audio
ID : 1
Format : MPEG Audio
Format version : Version 1
Format profile : Layer 3
Codec ID : 55
Codec ID/Hint : MP3
Duration : 24mn 18s
Bit rate mode : Variable
Bit rate : 106 Kbps
Nominal bit rate : 128 Kbps
Channel(s) : 2 channels
Sampling rate : 48.0 KHz
Resolution : 16 bits
Stream size : 18.4 MiB (9%)
Alignment : Aligned on interleaves
Interleave, duration : 24 ms (0.72 video frame)
Interleave, preload duration : 505 ms
Writing library : LAME3.98r
Encoding settings : -m j -V 4 -q 2 -lowpass 17 --abr 128

related torrents

Torrent name

health leech seeds Size
 

comments (0)

Main Menu