Action

The Scorpion King [2002] 1264x544 HD Mp4 X264 AAC 5 1 ch 3Li

  • Download 5x Faster
  • Download torrent
  • Direct Download
  • Rate this torrent +  |  -
The Scorpion King [2002] 1264x544 HD Mp4 X264 AAC 5 1 ch 3Li

Free and Direct Download with Usenet 300GB+ free


Torrent info

Name:The Scorpion King [2002] 1264x544 HD Mp4 X264 AAC 5 1 ch 3Li

Total Size: 1.41 GB

Magnet: Magnet Link

Seeds: 0

Leechers: 0

Stream: Watch Online @ Movie4u

Last Updated: 2015-10-02 04:36:28 (Update Now)

Torrent added: 2009-09-13 13:39:15




Torrent Files List


snapshot20090907133152.jpg (Size: 1.41 GB) (Files: 14)

 snapshot20090907133152.jpg

86.05 KB

 snapshot20090907133246.jpg

61.51 KB

 snapshot20090907133417.jpg

117.74 KB

 snapshot20090907133509.jpg

69.02 KB

 snapshot20090907133618.jpg

92.95 KB

 snapshot20090907133759.jpg

105.26 KB

 snapshot20090907134031.jpg

114.69 KB

 snapshot20090907134058.jpg

74.99 KB

 snapshot20090907134142.jpg

46.78 KB

 snapshot20090907134214.jpg

53.28 KB

 The Scorpion King.mp4

1.40 GB

 The Scorpion King.mp4.txt

4.52 KB

 Torrent downloaded from Demonoid.com.txt

0.05 KB

 tracked_by_h33t_com.txt

0.02 KB
 

tracker

leech seeds
 

Torrent description

General
Complete name : The Scorpion King.mp4
Format : MPEG-4
Format profile : Base Media
Codec ID : isom
File size : 1.40 GiB
Duration : 1h 31mn
Overall bit rate : 2 198 Kbps

Video
ID : 1
Format : AVC
Format/Info : Advanced Video Codec
Format profile : [email protected]
Format settings, CABAC : Yes
Format settings, ReFrames : 3 frames
Codec ID : avc1
Codec ID/Info : Advanced Video Coding
Duration : 1h 31mn
Bit rate mode : Variable
Bit rate : 2 004 Kbps
Nominal bit rate : 2 058 Kbps
Maximum bit rate : 7 135 Kbps
Width : 1 264 pixels
Height : 544 pixels
Display aspect ratio : 2.35:1
Frame rate mode : Constant
Frame rate : 23.976 fps
Resolution : 24 bits
Colorimetry : 4:2:0
Scan type : Progressive
Bits/(Pixel*Frame) : 0.122
Stream size : 1.28 GiB (91%)
Title : The Scorpion King By ELi
Writing library : x264 core 68 r1183M f21daff

Audio
ID : 2
Format : AAC
Format/Info : Advanced Audio Codec
Format version : Version 4
Format profile : LC
Format settings, SBR : No
Codec ID : 40
Duration : 1h 31mn
Bit rate mode : Variable
Bit rate : 192 Kbps
Maximum bit rate : 281 Kbps
Channel(s) : 6 channels
Channel positions : Front: L C R, Rear: L R, LFE
Sampling rate : 48.0 KHz
Resolution : 16 bits
Stream size : 124 MiB (9%)
Title : The Scorpion King

related torrents

Torrent name

health leech seeds Size
 

comments (0)

Main Menu