Sci-Fi

The Incredible Hulk [2008] 1280x544 HD Mp4 H264 AAC 2 ch 3Li

  • Download 5x Faster
  • Download torrent
  • Direct Download
  • Rate this torrent +  |  -
The Incredible Hulk [2008] 1280x544 HD Mp4 H264 AAC 2 ch 3Li

Anonymous and Free Direct Download 300GB+


Torrent info

Name:The Incredible Hulk [2008] 1280x544 HD Mp4 H264 AAC 2 ch 3Li

Total Size: 1.37 GB

Magnet: Magnet Link

Seeds: 0

Leechers: 0

Stream: Watch Online @ Movie4u

Last Updated: 0000-00-00 00:00:00 (Update Now)

Torrent added: 2009-09-13 13:39:13



VPN For Torrents

Torrent Files List


snapshot20090827092153.jpg (Size: 1.37 GB) (Files: 6)

 snapshot20090827092153.jpg

79.16 KB

 The Incredible Hulk thumbnails.jpg

294.30 KB

 The Incredible Hulk.mp4

1.37 GB

 The Incredible Hulk.mp4.txt

6.02 KB

 Torrent downloaded from Demonoid.com.txt

0.05 KB

 tracked_by_h33t_com.txt

0.02 KB
 

Announce URL: http://www.h33t.com:3310/announce

Torrent description

General
Complete name : The Incredible Hulk.mp4
Format : MPEG-4
Format profile : Base Media
Codec ID : isom
File size : 1.37 GiB
Duration : 1h 52mn
Overall bit rate : 1 749 Kbps
Encoded date : UTC 2009-08-25 11:04:43
Tagged date : UTC 2009-08-25 11:04:43

Video
ID : 1
Format : AVC
Format/Info : Advanced Video Codec
Format profile : Main@L4.1
Format settings, CABAC : Yes
Format settings, ReFrames : 3 frames
Codec ID : avc1
Codec ID/Info : Advanced Video Coding
Duration : 1h 52mn
Bit rate mode : Variable
Bit rate : 1 620 Kbps
Nominal bit rate : 1 640 Kbps
Maximum bit rate : 10.2 Mbps
Width : 1 280 pixels
Height : 544 pixels
Display aspect ratio : 2.35:1
Frame rate mode : Constant
Frame rate : 23.976 fps
Resolution : 24 bits
Colorimetry : 4:2:0
Scan type : Progressive
Bits/(Pixel*Frame) : 0.097
Stream size : 1.27 GiB (93%)
Title : Hulk 2
Writing library : x264 core 65 r999kMod cc51047
Encoding settings : cabac=1 / ref=3 / deblock=1:0:0 / analyse=0x1:0 / me=dia / subme=6 / psy_rd=1.0:0.0 / mixed_ref=1 / me_range=16 / chroma_me=1 / trellis=0 / 8x8dct=0 / cqm=0 / deadzone=21,11 / chroma_qp_offset=-2 / threads=2 / thread_queue=2 / nr=0 / decimate=1 / mbaff=0 / bframes=3 / b_pyramid=1 / b_adapt=1 / b_bias=0 / direct=1 / wpredb=0 / keyint=250 / keyint_min=25 / scenecut=40(pre) / rc=abr / bitrate=1640 / ratetol=1.0 / qcomp=0.60 / qpmin=10 / qpmax=51 / qpstep=4 / ip_ratio=1.40 / pb_ratio=1.30 / aq=1:1.00
Encoded date : UTC 2009-08-25 11:04:43
Tagged date : UTC 2009-08-25 11:05:41

Audio
ID : 2
Format : AAC
Format/Info : Advanced Audio Codec
Format version : Version 4
Format profile : Main
Codec ID : 40
Duration : 1h 52mn
Bit rate mode : Variable
Bit rate : 125 Kbps
Maximum bit rate : 175 Kbps
Channel(s) : 2 channels
Channel positions : L R
Sampling rate : 48.0 KHz
Resolution : 16 bits
Stream size : 101 MiB (7%)
Encoded date : UTC 2009-08-25 11:05:24
Tagged date : UTC 2009-08-25 11:05:41

related torrents

Torrent name

health leech seeds Size
 


comments (0)

Main Menu